Торрент файл
скачать торрент магнет ссылка Добавлен: 02 фев 2012, 17:57
Размер: 4.87 ГБ
Сидеров: 8
Личеров: 16
Статус: (nikk1988)
Автор

СообщениеДобавлено: 02 фев 2012, 17:57 

Не в сети
Супермодератор
Аватара пользователя
Дата регистрации:
14 июн 2010, 21:00
Возраст: 28
Спасибо: 1324 / 1
Сообщения: 5644
Откуда: НиНО
Черная буря / Dark Storm


Перевод: Профессиональный (многоголосый, закадровый)
Субтитры:Русские, английские
Формат: DVD9, DVD Video, MPEG2, AC3/DTS
Страна: Канада
Режиссер: Джейсон Бурк
Жанр: фантастика, триллер
Продолжительность: 01:25:37
Год выпуска: 2006

В ролях: Стивен Болдуин, Роб ЛаБелль, Гардинер Миллар, Камилль Салливан, Уильям Б. Дэвис, Киган Коннор Трейси, Кэрри Гензел, Филлип Митчел, Дин Редман, Джерри Мортон

Описание: На секретной военной базе ведутся разработки нового оружия, уникального по своей огромной разрушительной мощи и сверхъестественному происхождению. Во время испытаний один из разработчиков прикасается к этой «темной атерии» и приобретает новые, сверхчеловеческие, особенности. С их помощью можно много сделать, пример, захватить целый мир........

Рейтинг на IMDB: 3.5/10
Рейтинг на КиноПоиске: 5.095
Рейтинг на MPAA: PG-13

Видео: 720x576 (PAL4:3), MPEG-2 Video, 25.000 fps, ~ 8000 kbps avg
Аудио #1: Русский: 48.0 kHz, АС3, 6 ch, ~ 448 Kbps avg [Профессиональный (многоголосый, закадровый)]
Аудио #2: Русский: 48.0 kHz, DTS, 6 ch, ~ 755 Kbps avg [Профессиональный (многоголосый, закадровый)]
Аудио #3: Английский: 48.0 kHz, АС3, 6 ch, ~ 448 Kbps avg [Оригинал]

Семпл

Дополнительно:
    Meню статичное, на русском языке, с навигацией по эпизодам



Формат: MPEG-PS
Режим общего битрейта: Переменный
Общий поток: 8617 Кбит/сек

Видео
Идентификатор: 224 (0xE0)
Формат: MPEG Video
Версия формата: Version 2
Профиль формата: Main@Main
Параметр BVOP формата: Да
Параметр матрицы формата: Выборочная
Параметр GOP формата: M=3, N=15
Продолжительность: 1 м. 27 с.
Вид битрейта: Переменный
Битрейт: 6795 Кбит/сек
Максимальный битрейт: 8000 Кбит/сек
Ширина: 720 пикселей
Высота: 576 пикселей
Соотношение сторон: 4:3
Частота кадров: 25,000 кадров/сек
Стандарт вещания: PAL
Цветовое пространство: YUV
Субдискретизация насыщенности: 4:2:0
Битовая глубина: 8 бит
Тип развёртки: Чересстрочная
Порядок развёртки: Верхнее поле первое
Метод сжатия: С потерями
Бит/(Пиксели*Кадры): 0.655
Размер потока: 70,9 Мбайт (79%)

Аудио #1
Идентификатор: 189 (0xBD)-128 (0x80)
Формат: AC-3
Формат/Информация: Audio Coding 3
Расширение режима: CM (complete main)
Режим смешивания: DVD-Video
Продолжительность: 1 м. 27 с.
Вид битрейта: Постоянный
Битрейт: 448 Кбит/сек
Каналы: 6 каналов
Расположение каналов: Front: L C R, Side: L R, LFE
Частота: 48,0 КГц
Битовая глубина: 16 бит
Метод сжатия: С потерями
Задержка видео: -344 мс.
Размер потока: 4,67 Мбайт (5%)

Аудио #2
Идентификатор: 189 (0xBD)-130 (0x82)
Формат: AC-3
Формат/Информация: Audio Coding 3
Расширение режима: CM (complete main)
Режим смешивания: DVD-Video
Продолжительность: 1 м. 27 с.
Вид битрейта: Постоянный
Битрейт: 448 Кбит/сек
Каналы: 6 каналов
Расположение каналов: Front: L C R, Side: L R, LFE
Частота: 48,0 КГц
Битовая глубина: 16 бит
Метод сжатия: С потерями
Задержка видео: -344 мс.
Размер потока: 4,67 Мбайт (5%)

Аудио #3
Идентификатор: 189 (0xBD)-137 (0x89)
Формат: DTS
Формат/Информация: Digital Theater Systems
Режим смешивания: DVD-Video
Продолжительность: 1 м. 27 с.
Вид битрейта: Постоянный
Битрейт: 755 Кбит/сек
Каналы: 6 каналов
Расположение каналов: Front: L C R, Side: L R, LFE
Частота: 48,0 КГц
Битовая глубина: 24 бит
Метод сжатия: С потерями
Задержка видео: -344 мс.
Размер потока: 7,87 Мбайт (9%)

Текст #1
Идентификатор: 189 (0xBD)-32 (0x20)
Формат: RLE
Формат/Информация: Run-length encoding
Режим смешивания: DVD-Video
Продолжительность: 1 м. 25 с.
Задержка видео: 1 с. 480 мс.

Текст #2
Идентификатор: 189 (0xBD)-33 (0x21)
Формат: RLE
Формат/Информация: Run-length encoding
Режим смешивания: DVD-Video
Продолжительность: 1 м. 25 с.
Задержка видео: 1 с. 480 мс.

Меню




















Поделиться:




реклама партнёра


Вернуться к началу
 Профиль Отправить личное сообщение  
 
   Похожие торренты   Автор   Торрент   Размер 
В этой теме нет новых непрочитанных сообщений. Призвание / The Calling (Джейсон Стоун) [триллер, криминал, детектив, 2014] DVD9, Mvo+Sub [Лицензия]

Dracon

15 | 7

6.89 ГБ

В этой теме нет новых непрочитанных сообщений. На паузе / Standby (Роб Бурк, Ронан Бурк) [Комедия, Приключения, Мелодрама, 2014] HDRip, Mvo [Лицензия]

Dracon

50 | 3

1.46 ГБ

В этой теме нет новых непрочитанных сообщений. На паузе / Standby (Роб Бурк, Ронан Бурк) [Комедия, Приключения, Мелодрама, 2014] BDRip 1080p, Mvo [Лицензия]

Dracon

62 | 6

7.88 ГБ

В этой теме нет новых непрочитанных сообщений. На паузе / Standby (Роб Бурк, Ронан Бурк) [Комедия, Приключения, Мелодрама, 2014] BDRip 720p, Mvo [Лицензия]

Dracon

15 | 3

4.6 ГБ

В этой теме нет новых непрочитанных сообщений. Отель Парадизо / Guest House Paradiso [черная комедия, 1999] DVD9, Mvo

salma3

4 | 1

6.02 ГБ

В этой теме нет новых непрочитанных сообщений. Смертельные узы / Wedlock [Фантастика, боевик, триллер, 1991] DVD9, Dvo+Avo

salma3

7 | 7

6.75 ГБ

В этой теме нет новых непрочитанных сообщений. Радиоволна / Frequency [триллер, фантастика, драма, криминал, 2000] DVD9, Mvo+Sub

salma3

11 | 2

5.06 ГБ


Начать новую тему Ответить на тему  [ 1 сообщение ] 




Для Мосгорсуда, Роскомнадзора и рекламодателей:: mosgorsud-torrent[собачка]yandex.ru