Торрент файл
скачать торрент магнет ссылка Добавлен: 09 янв 2012, 19:42
Размер: 4.35 ГБ
Сидеров: 2
Личеров: 4
Автор

СообщениеДобавлено: 09 янв 2012, 19:42 

Не в сети
Супермодератор
Аватара пользователя
Дата регистрации:
11 апр 2010, 18:10
Спасибо: 5802 / 7
Сообщения: 56779


13-й район: Ультиматум / Banlieue 13 Ultimatum

Перевод: Профессиональный (многоголосый, закадровый), cубтитры: отсутствуют
Формат: DVD5 (сжатый), DVD Video, MPEG2, AC3
Страна: Франция
Режиссер: Патрик Алессандрин / Patrick Alessandrin
Жанр: боевик
Продолжительность: 01:36:43
Год выпуска: 2009

В ролях: Дэвид Белль Сирил Раффаэлли Филипп Торретон Даниэль Дюваль Элоди Юнг МС Жан Габен Лауни Муид Фабрис Флетцингер Пьер-Мари Москони Софи Дюкасс

Описание: 13-й район, два года спустя. Стена, отделяющая неблагополучный пригород от столицы, стала больше, выше и отгородила от цивилизации еще больше кварталов. По эту сторону стены правят пять банд, контролирующих этнические районы. Правительство как никогда заинтересовано в «урегулировании проблемы», и разведывательные службы охотно инициируют беспорядки. Лейто и Дамьену снова приходится объединить усилия, чтобы спасти Париж от хаоса

Рейтинг на IMDB:6.6/102,787 votes
IMDB
Рейтинг MPAA: R
Видео: MPEG Video,720x576(16:9),5 806 Kbps,25.000 fps ,VBR Auto Letterboxed
Аудио: Russian (Dolby AC3, 6 ch): AC3, 3/2+LFE ch, 448Kbps, 48.0 KHz,Delay 0 mSec

Доп. информация: Сжатие 16,2% фильм, 23% титры. Сжималось связкой DVDRemake Pro, DVD Rebuilder + CCE/Procoder в 9 проходов.
Удалено: Русский(Немахов), французский(ДТС),все допы, реклама, предупреждения.






Title:
Size: 4.35 Gb ( 4 564 474 KBytes ) - DVD-5
Enabled regions: 1, 2, 3, 4, 5, 6, 7, 8

VTS_01 :
Play Length: 01:36:43
Video: PAL 16:9 (720x576) VBR, Auto Letterboxed
Audio:
Russian (Dolby AC3, 6 ch)

Menu Video:
NTSC 4:3 (720x480) VBR
Auto Pan&Scan, Auto Letterboxed
Menu Russian Language Unit :
Root Menu

General
Complete name: F:\New\13raionDVD5\VIDEO_TS\VTS_01_1.VOB
Format: MPEG-PS
File size: 1 024 MiB
Duration: 21mn 59s
Overall bit rate: 6 512 Kbps

Video
ID: 224 (0xE0)
Format: MPEG Video
Format version: Version 2
Format profile: Main@Main
Format settings, Matrix: Default
Duration: 21mn 59s
Bit rate mode: Variable
Bit rate: 5 806 Kbps
Nominal bit rate: 8 349 Kbps
Width: 720 pixels
Height: 576 pixels
Display aspect ratio: 2.35:1
Frame rate: 25.000 fps
Standard: PAL
Colorimetry: 4:2:0
Scan type: Interlaced
Scan order: Top Field First
Bits/(Pixel*Frame): 0.560
Stream size: 913 MiB (89%)

Audio
ID: 128 (0x80)
Format: AC-3
Format/Info: Audio Coding 3
Duration: 21mn 58s
Bit rate mode: Constant
Bit rate: 448 Kbps
Channel(s): 6 channels
Channel positions: Front: L C R, Surround: L R, LFE
Sampling rate: 48.0 KHz
Stream size: 70.4 MiB (7%)

Menu

Поделиться:




реклама партнёра


Вернуться к началу
 Профиль Отправить личное сообщение  
 
   Похожие торренты   Автор   Торрент   Размер 
В этой теме нет новых непрочитанных сообщений. Патрик / Patrick [ужасы, фантастика, триллер, 2013] HDRip, dvo

Dracon

277 | 14

1.47 ГБ

В этой теме нет новых непрочитанных сообщений. Патрик / Patrick [ужасы, фантастика, триллер, 2013] BDRip 720p, dvo

Dracon

42 | 4

5.61 ГБ

В этой теме нет новых непрочитанных сообщений. 13-й район: Кирпичные особняки / Brick Mansions [боевик, криминал, 2014] DVD5, Dub [лицензия]

Dracon

59 | 14

4.21 ГБ

В этой теме нет новых непрочитанных сообщений. Годзилла / Godzilla [Фантастика, боевик, триллер, 2014] DVD5, Dub+Sub [Сжатый]

salma3

29 | 12

4.37 ГБ

В этой теме нет новых непрочитанных сообщений. Уцелевший / Lone Survivor [военный, боевик, драма, 2013] DVD5, Dub [сжатый]

Dracon

10 | 2

4.37 ГБ

В этой теме нет новых непрочитанных сообщений. Операция «Мёртвый снег» 2 / Død Snø 2 [Ужасы, боевик, комедия, 2014] DVD5, Mvo [Сжатый]

salma3

16 | 4

4.29 ГБ

В этой теме нет новых непрочитанных сообщений. Мачо и ботан 2 / 22 Jump Street [комедия, боевик, криминал, 2014] DVD5, Dub+Sub [сжатый]

salma3

51 | 3

4.36 ГБ


Начать новую тему Ответить на тему  [ 1 сообщение ] 




Для Мосгорсуда, Роскомнадзора и рекламодателей:: mosgorsud-torrent[собачка]yandex.ru