Торрент файл
скачать торрент магнет ссылка Добавлен: 09 янв 2012, 19:19
Размер: 4.17 ГБ
Сидеров: 5
Личеров: 6
Автор

СообщениеДобавлено: 09 янв 2012, 19:19 

Не в сети
Супермодератор
Аватара пользователя
Дата регистрации:
11 апр 2010, 18:10
Спасибо: 5995 / 7
Сообщения: 56686
В бой идут одни «старики» [Ремастеринг][Цветная версия]

Перевод: Не требуется
Субтитры: Отсутствуют
Формат: DVD5, DVD Video, MPEG2, MPEG Audio
Страна: СССР
Режиссер: Леонид Быков
Жанр: Комедия, драма, военный
Продолжительность: 01:26:52
Год выпуска: 1973

В ролях: Леонид Быков, Сергей Подгорный, Сергей Иванов, Рустам Сагдуллаев, Евгения Симонова, Ольга Матешко, Владимир Талашко, Алексей Смирнов, Виктор Мирошниченко и др.

Описание: Эта эскадрилья считалась "поющей" - так капитан Титаренко подбирал себе новичков. Его "старикам" было не больше двадцати, но "желторотиков", пополнение из летных училищ ускоренного выпуска, в бой все равно, по возможности, не пускали. Им еще многое предстояло испытать - и жар боев, и радость первой победы над врагом, и величие братства, скрепленного кровью, и первую любовь, и горечь утраты... И настанет день, когда по команде "в бой идут одни старики" бывшие "желторотики" бросаются к своим самолетам.

Рейтинг на IMDB: 8.70 (577)
Рейтинг на Kinopoisk.RU: 8.545 (13986)

Видео: MPEG2 Video, 720x576 (PAL 4:3), 25.00fps, ~9610 kbps avg
Аудио: Русский: 48 kHz, MPEG Audio, 2.0 (L,R) ~224.00 kbps avg

Доп. информация: Меню отсутствует
Complete name : C:\stariki_[tfile.ru]\VIDEO_TS\VTS_01_1.VOB
Format : MPEG-PS
File size : 1 024 MiB
Duration : 20mn 52s
Overall bit rate : 6 859 Kbps
Writing library : Created by Nero

Video
ID : 224 (0xE0)
Format : MPEG Video
Format version : Version 2
Format profile : Main@Main
Format settings, Matrix : Default
Duration : 20mn 52s
Bit rate mode : Variable
Bit rate : 6 362 Kbps
Nominal bit rate : 9 610 Kbps
Width : 720 pixels
Height : 576 pixels
Display aspect ratio : 4/3
Frame rate : 25.000 fps
Standard : PAL
Colorimetry : 4:2:0
Scan type : Progressive
Scan order : Bottom Field First
Bits/(Pixel*Frame) : 0.614
Stream size : 950 MiB (93%)
Writing library : Created by Nero

Audio
ID : 192 (0xC0)
Format : MPEG Audio
Format version : Version 1
Format profile : Layer 2
Duration : 20mn 52s
Bit rate mode : Constant
Bit rate : 224 Kbps
Channel(s) : 2 channels
Sampling rate : 48.0 KHz
Resolution : 16 bits
Video delay : -40ms
Stream size : 33.4 MiB (3%)







Поделиться:



Вернуться к началу
 Профиль Отправить личное сообщение  
 
   Похожие торренты   Автор   Торрент   Размер 
В этой теме нет новых непрочитанных сообщений. Русские идут! Русские идут! / The Russians Are Coming, the Russians Are Coming [комедия, военный, 1966] BDRip, Mvo

salma3

0 | 0

2.19 ГБ

В этой теме нет новых непрочитанных сообщений. Веселые ребята [Комедия, мюзикл, 1934] HDTVRip 720p [Цветная версия]

salma3

3 | 1

2.16 ГБ

В этой теме нет новых непрочитанных сообщений. Берсальеры идут / Arrivano i bersaglieri [драма, комедия, 1980] DVDRip, Mvo

salma3

0 | 1

1.74 ГБ

В этой теме нет новых непрочитанных сообщений. Куда же делась седьмая рота? / Mais où est donc passée la 7ème compagnie? [[боевик, комедия, военный, 1973] BDRip, Mvo

salma3

0 | 2

1.45 ГБ

В этой теме нет новых непрочитанных сообщений. Гитлер: Последние десять дней / Hitler: The Last Ten Days [драма, военный, биография, история, 1973] BDRip 720p, Avo

salma3

27 | 9

6.73 ГБ

В этой теме нет новых непрочитанных сообщений. Вечный зов [01-19 из 19] (Владимир Краснопольский, Валерий Усков) [Киноповесть, военный, драма, исторический, семейный, 1973-1983] HDTV 1080i

Dracon

43 | 25

78.59 ГБ

В этой теме нет новых непрочитанных сообщений. Старики-разведчики / Kundschafter des Friedens [боевик, триллер, комедия, 2017] BDRip-AVC, Avo

salma3

0 | 151

647.02 МБ


Начать новую тему Ответить на тему  [ 1 сообщение ] 




Для Мосгорсуда, Роскомнадзора и рекламодателей:: mosgorsud-torrent[собачка]yandex.ru
cron