Торрент файл
скачать торрент магнет ссылка Добавлен: 08 янв 2012, 23:56
Размер: 4.02 ГБ
Сидеров: 0
Личеров: 5
Автор

СообщениеДобавлено: 08 янв 2012, 23:56 

Не в сети
Супермодератор
Аватара пользователя
Дата регистрации:
11 апр 2010, 18:10
Спасибо: 5799 / 7
Сообщения: 56779
День Святого Валентина / Valentine's Day


Перевод: Профессиональный (полное дублирование)[LINE]
Субтитры: Английские, Голанские, Польские
Формат: DVD5, DVD Video, MPEG2, AC3
Страна: США
Режиссер: Гэрри Маршалл
Жанр: мелодрама,комедия
Продолжительность: 02:45:34
Год выпуска: 2010

В ролях: Джессика Альба, Кэти Бейтс, Джессика Бил, Брэдли Купер, Дженнифер Гарнер, Энн Хэтэуэй, Эштон Катчер, Джулия Робертс, Тэйлор Лотнер, Эрик Дэйн, Джейми Фокс, Эмма Робертс

Описание: Столько звезд и столько смеха! Весь актерский состав блистает в этой веселой романтической комедии от режиссера "Красотки" и "Как стать принцессой". В одном дне из жизни влюбленных вы увидите пересечение, столкновение и возвращение бумерангом различных историй. Есть предложение. Неотправленные цветы. Страшный секрет, который наконец был рассказан. Сюрприз для него, обернувшийся сюрпризом для нее. Ссоры, поцелуи, неверные ходы, правильные движения и многое-многое другое. Хотите вы того или нет, но вы будете без ума, влюбившись в 19 звезд, окунувшихся в праздник романтики.

Рейтинг на IMDB:5.7/10[/field]
Рейтинг на КиноПоиск. RU: 7.094[/field]
Рейтинг MPAA: PG-13

Видео: 720x480 (NTSC, 16/9), 23.976fps, MPEG Video-2, ~7500 Kbps
Audio #1:Русский 48.0 KHz, AC3, 2 ch, ~224Kbps [Профессиональный (полное дублирование [LINE]
Audio #2: Английский 48.0 KHz, AC3, 6 ch, ~384Kbps(Оригинал)

Доп. информация:В данном релизе нет одной минуты перевода.

Title:
Size: 4.02 Gb ( 4 220 358 KBytes ) - DVD-5
Enabled regions: 1, 2, 3, 4, 5, 6, 8

VTS_01 :
Play Length: 02:04:28+00:10:06+00:11:32+00:12:59+00:06:29
Video: NTSC 16:9 (720x480) VBR, Auto Letterboxed
Audio:
Russian (Dolby AC3, 2 ch)
English (Dolby AC3, 6 ch)
Subtitles:
English
Nederlands
Polish
Video
ID: 224 (0xE0)
Format: MPEG Video
Format version: Version 2
Format profile: Main@Main
Format settings, Matrix: Default
Duration: 31mn 9s
Bit rate mode: Variable
Bit rate: 3 803 Kbps
Nominal bit rate: 7 500 Kbps
Width: 720 pixels
Height: 480 pixels
Display aspect ratio: 16:9
Frame rate: 23.976 fps
Standard: NTSC
Colorimetry: 4:2:0
Scan type: Progressive
Scan order: 2:3 Pulldown
Bits/(Pixel*Frame): 0.459
Stream size: 848 MiB (83%)

Audio #1
ID: 128 (0x80)
Format: AC-3
Format/Info: Audio Coding 3
Duration: 31mn 9s
Bit rate mode: Constant
Bit rate: 224 Kbps
Channel(s): 2 channels
Channel positions: L R
Sampling rate: 48.0 KHz
Video delay: -91ms
Stream size: 49.9 MiB (5%)

Audio #2
ID: 129 (0x81)
Format: AC-3
Format/Info: Audio Coding 3
Duration: 31mn 9s
Bit rate mode: Constant
Bit rate: 384 Kbps
Channel(s): 6 channels
Channel positions: Front: L C R, Surround: L R, LFE
Sampling rate: 48.0 KHz
Video delay: -123ms
Stream size: 85.6 MiB (8%)










Поделиться:




реклама партнёра


Вернуться к началу
 Профиль Отправить личное сообщение  
 
   Похожие торренты   Автор   Торрент   Размер 
В этой теме нет новых непрочитанных сообщений. День святого Валентина / Valentine's Day [боевик, триллер, драма, мелодрама, 1998] VODRip, Mvo

salma3

2 | 3

1.44 ГБ

В этой теме нет новых непрочитанных сообщений. День Святого Валентина / Valentine [ужасы, триллер, 2001] WEB-DL 720p, Dub

salma3

20 | 0

3.23 ГБ

В этой теме нет новых непрочитанных сообщений. Я ненавижу день Святого Валентина / Odeio o Dia dos Namorados [мелодрама, комедия, 2013] DVDRip, Mvo

salma3

138 | 11

1.46 ГБ

В этой теме нет новых непрочитанных сообщений. Такой вот неизвестный, но ломовой приём - 2 ("Бойня в день Святого Валентина") (Алексей Меняйлов) [2014, документальный, криминал.WEBRip]

vairgin

9 | 6

291.46 МБ

В этой теме нет новых непрочитанных сообщений. Хочешь или нет? / Tu veux... ou tu veux pas? (Тони Маршалл) [Мелодрама, Комедия, 2014] WEB-DLRip, Dub [iTunes]

Dracon

165 | 8

1.37 ГБ

В этой теме нет новых непрочитанных сообщений. Хочешь или нет? / Tu veux... ou tu veux pas? (Тони Маршалл) [Мелодрама, Комедия, 2014] HDRip, Dub [iTunes]

Dracon

13 | 3

1.37 ГБ

В этой теме нет новых непрочитанных сообщений. Хочешь или нет? / Tu veux... ou tu veux pas? (Тони Маршалл) [Мелодрама, Комедия, 2014] BDRip 1080p, Dub [iTunes]

Dracon

12 | 5

6.79 ГБ


Начать новую тему Ответить на тему  [ 1 сообщение ] 




Для Мосгорсуда, Роскомнадзора и рекламодателей:: mosgorsud-torrent[собачка]yandex.ru