Торрент файл
скачать торрент магнет ссылка Добавлен: 08 янв 2012, 23:41
Размер: 3.65 ГБ
Сидеров: 3
Личеров: 7
Автор

СообщениеДобавлено: 08 янв 2012, 23:41 

Не в сети
Супермодератор
Аватара пользователя
Дата регистрации:
11 апр 2010, 18:10
Спасибо: 5801 / 7
Сообщения: 56779
Паспорт в Париж / Passport to Paris

Перевод: Профессиональный (двухголосый)
Субтитры: Русские, английские, голландские, французские,английские
Формат: DVD5, DVD Video, MPEG2, AC3
Страна: США
Режиссер: Алан Меттер
Жанр: Комедия, семейный
Продолжительность: 01:27:17
Год выпуска: 1999
В ролях: Мэри-Кейт Олсен, Эшли Олсен, Питер Уайт, Мэтт Уинстон, Ивонн Скио, Брокер Вэй, Этан Пек, Франсуа Джиродэй, Джон Меник, Доран Кларк, ...

Описание: Мэри-Кейт и Эшли собираются навестить родственников во Франции. Пакуя свои вещи, они с нетерпением ждут встречи с новыми веселыми приключениями. И они не будут разочарованы. Приехав в Париж, Мэри-Кейт и Эшли без ума влюбляются в двух французских ребят!
Вместе они колесят вокруг Парижа на мопедах и осматривают достопримечательности. Близняшки совершают одно веселое безумство за другим: отправляются за покупками по парижским бутикам, изучают Нотр-Дам, ужинают на Эйфелевой башне.


Рейтинг на КиноПоиск: 6.569 (1 792)
Рейтинг на IMDb: 4.4/10
Рейтинг MPAA: G

Видео: 720X576 (PAL 4:3), 25.000fps, MPEG-2 Video, ~8 000Kbps
Аудио#1: Английский 48.0KHz, AC-3, 2 ch, ~192Kbps[Оригинал]
Аудио#2: Французский 48.0KHz, AC-3, 2 ch, ~192Kbps
Аудио#3: Русский 48.0KHz, AC-3, 2 ch, ~192Kbps[Профессиональный(двухголосый)]

Доп. информация: Релиз содержит субтитры с ненормативной лексикой



General
Complete name: C:\загрузка\Passport_to_Paris_[tfile.ru]\VIDEO_TS\VTS_01_2.VOB
Format: MPEG-PS
File size: 1 024 MiB
Duration: 22mn 41s
Overall bit rate: 6 309 Kbps

Video
ID: 224 (0xE0)
Format: MPEG Video
Format version: Version 2
Format profile: Main@Main
Format settings, Matrix: Default
Duration: 22mn 41s
Bit rate mode: Variable
Bit rate: 5 483 Kbps
Nominal bit rate: 8 000 Kbps
Width: 720 pixels
Height: 576 pixels
Display aspect ratio: 4/3
Frame rate: 25.000 fps
Standard: PAL
Colorimetry: 4:2:0
Scan type: Interlaced
Scan order: Top Field First
Bits/(Pixel*Frame): 0.529
Stream size: 890 MiB (87%)

Audio #1
ID: 128 (0x80)
Format: AC-3
Format/Info: Audio Coding 3
Format profile: Dolby Digital
Duration: 22mn 41s
Bit rate mode: Constant
Bit rate: 192 Kbps
Channel(s): 2 channels
Channel positions: L R
Sampling rate: 48.0 KHz
Video delay: -728ms
Stream size: 31.2 MiB (3%)

Audio #2
ID: 129 (0x81)
Format: AC-3
Format/Info: Audio Coding 3
Duration: 22mn 41s
Bit rate mode: Constant
Bit rate: 192 Kbps
Channel(s): 2 channels
Channel positions: L R
Sampling rate: 48.0 KHz
Video delay: -728ms
Stream size: 31.2 MiB (3%)

Audio #3
ID: 130 (0x82)
Format: AC-3
Format/Info: Audio Coding 3
Duration: 22mn 41s
Bit rate mode: Constant
Bit rate: 192 Kbps
Channel(s): 2 channels
Channel positions: L R
Sampling rate: 48.0 KHz
Video delay: -728ms
Stream size: 31.2 MiB (3%)

Text #1
ID: 32 (0x20)
Format: RLE
Format/Info: Run-length encoding
Duration: 22mn 39s
Video delay: -728ms

Text #2
ID: 33 (0x21)
Format: RLE
Format/Info: Run-length encoding

Text #3
ID: 34 (0x22)
Format: RLE
Format/Info: Run-length encoding

Text #4
ID: 35 (0x23)
Format: RLE
Format/Info: Run-length encoding

Text #5
ID: 36 (0x24)
Format: RLE
Format/Info: Run-length encoding
Duration: 22mn 39s
Video delay: -728ms

Menu
Format: DVD-Video

Сценарий: Элизабет Крюгер, Крэйг Шапиро
Продюсер: Эшли Олсен, Мэри-Кейт Олсен, Меган Ф. Ринг, ...
Оператор: Стивен Вакс
Композитор: Кристофер Брэйди
Премьера мир: 9 ноября 1999

Производство:
1. Hollyridge Productions




















Поделиться:




реклама партнёра


Вернуться к началу
 Профиль Отправить личное сообщение  
 
   Похожие торренты   Автор   Торрент   Размер 
В этой теме нет новых непрочитанных сообщений. Париж, я люблю тебя / Paris, je t'aime [мелодрама, комедия, 2006] BDRip, Mvo

salma3

39 | 5

2.18 ГБ

В этой теме нет новых непрочитанных сообщений. Париж любой ценой / Paris à tout prix [Комедия, 2013] HDRip, Dub [Лицензия]

Dracon

399 | 9

1.46 ГБ

В этой теме нет новых непрочитанных сообщений. Париж любой ценой / Paris à tout prix [Комедия, 2013] Blu-ray Remux 1080p, Dub+Sub [Лицензия]

salma3

11 | 5

24.63 ГБ

В этой теме нет новых непрочитанных сообщений. Париж любой ценой / Paris à tout prix [Комедия, 2013] BDRip 720p, Dub [Лицензия]

Dracon

75 | 3

4.61 ГБ

В этой теме нет новых непрочитанных сообщений. Не видать нам Париж, как своих ушей / We'll Never Have Paris (Саймон Хелберг, Жослин Таун) [мелодрама, комедия, 2014] HDTVRip, dub [чистый звук]

Dracon

11 | 0

1.37 ГБ

В этой теме нет новых непрочитанных сообщений. Не видать нам Париж, как своих ушей / We'll Never Have Paris (Саймон Хелберг, Жослин Таун) [мелодрама, комедия, 2014] BDRip 720p, dub [чистый звук]

Dracon

427 | 29

4.49 ГБ

В этой теме нет новых непрочитанных сообщений. Не видать нам Париж, как своих ушей / We'll Never Have Paris (Саймон Хелберг, Жослин Таун) [мелодрама, комедия, 2014] BDRip 1080p, dub [чистый звук]

Dracon

47 | 5

7.78 ГБ


Начать новую тему Ответить на тему  [ 1 сообщение ] 




Для Мосгорсуда, Роскомнадзора и рекламодателей:: mosgorsud-torrent[собачка]yandex.ru