Торрент файл
скачать торрент магнет ссылка Добавлен: 08 янв 2012, 23:41
Размер: 4.36 ГБ
Сидеров: 0
Личеров: 5
Автор

СообщениеДобавлено: 08 янв 2012, 23:41 

Не в сети
Супермодератор
Аватара пользователя
Дата регистрации:
11 апр 2010, 18:10
Спасибо: 5802 / 7
Сообщения: 56779
Точка обстрела / Vantage Point

Перевод: Профессиональный (полное дублирование)
Субтитры: Украинские
Формат: DVD5, DVD Video, MPEG2, AC3
Страна: США
Режиссер: Пит Трэвис
Жанр: триллер, драма
Продолжительность: 01:26:00
Год выпуска: 2008

В ролях: Зое Салдана, Мэттью Фокс, Сигурни Уивер, Деннис Куэйд, Уильям Херт, Форест Уитакер, Эдгар Рамирес, Ричард Т. Джонс, Саид Тахмаоуи, Айелет Зурер

Описание: Во время публичного выступления на антитеррористическом форуме в Саламанке (Испания), от рук экстремистов погибает президент США. Ha глaзax у цeлoй тoлпы. Bce вcё видeли… A вcё ли? A ecли пocмoтpeть eщe paз? 8 чeлoвeк мoгут увидeть oднo и тo жe coвepшeннo пo-paзнoму. Восемь свидетелей. Восемь версий. Toлькo ecли cлoжить вce куcoчки вмecтe — мoжнo coбpaть вcю мoзaику.

Рейтинг на IMDB: 6.7/10
Рейтинг на Кинопоиск.RU: 7.495
Рейтинг MPAA PG-13

Видео: 720x576 (PAL 4/3), 25 fps, MPEG Video ~ 4955kbps avg, 0.478 bit/pixel
Аудио# 1: Русский 48 kHz, Dolby AC3, 6 ch, ~448 kbps avg [Полное дублирование]
Аудио# 2: Украинский 48 kHz, Dolby AC3, 6 ch, ~448 kbps avg

Доп. информация: Релиз от "Киномании"

General
Complete name: D:\Моя\Раздача\tochka_obstrela_[tfile.ru]\VIDEO_TS\VTS_20_1.VOB
Format: MPEG-PS
File size: 1 024 MiB
Duration: 23mn 29s
Overall bit rate: 6 093 Kbps

Video
ID: 224 (0xE0)
Format: MPEG Video
Format version: Version 2
Format profile: Main@Main
Format settings, BVOP: Yes
Format settings, Matrix: Default
Duration: 23mn 29s
Bit rate mode: Variable
Bit rate: 4 955 Kbps
Nominal bit rate: 9 800 Kbps
Width: 720 pixels
Height: 576 pixels
Display aspect ratio: 4:3
Frame rate: 25.000 fps
Standard: PAL
Resolution: 8 bits
Colorimetry: 4:2:0
Scan type: Progressive
Scan order: Top Field First
Bits/(Pixel*Frame): 0.478
Stream size: 833 MiB (81%)

Audio #1
ID: 128 (0x80)
Format: AC-3
Format/Info: Audio Coding 3
Duration: 23mn 29s
Bit rate mode: Constant
Bit rate: 448 Kbps
Channel(s): 6 channels
Channel positions: Front: L C R, Surround: L R, LFE
Sampling rate: 48.0 KHz
Stream size: 75.3 MiB (7%)

Audio #2
ID: 129 (0x81)
Format: AC-3
Format/Info: Audio Coding 3
Duration: 23mn 29s
Bit rate mode: Constant
Bit rate: 448 Kbps
Channel(s): 6 channels
Channel positions: Front: L C R, Surround: L R, LFE
Sampling rate: 48.0 KHz
Stream size: 75.3 MiB (7%)

Menu










Поделиться:




реклама партнёра


Вернуться к началу
 Профиль Отправить личное сообщение  
 
   Похожие торренты   Автор   Торрент   Размер 
В этой теме нет новых непрочитанных сообщений. Черная точка / Black Point [Боевик, триллер, криминальная драма, 2001] DVDRip, Mvo

salma3

101 | 8

1.37 ГБ

В этой теме нет новых непрочитанных сообщений. Точка R / R-Point [Ужасы, боевик, триллер, драма, военный, 2004] BDRip 720p, Avo

salma3

7 | 2

6.44 ГБ

В этой теме нет новых непрочитанных сообщений. Точка нанесения удара / Point of Impact [Боевик, триллер, драма, криминал, 1993] DVDRip, Avo

salma3

42 | 2

1.36 ГБ

В этой теме нет новых непрочитанных сообщений. Точка невозврата / Crossing Point [боевик, триллер, 2016] WEB-DLRip, Avo

salma3

2216 | 228

1.36 ГБ

В этой теме нет новых непрочитанных сообщений. Точка прерывания / Termination Point [Фантастика, триллер, 2007] DVDRip, Mvo

salma3

69 | 12

1.37 ГБ

В этой теме нет новых непрочитанных сообщений. Точка давления / Pressure Point [драма, 1962] SATRip, Dvo

salma3

12 | 5

1.37 ГБ

В этой теме нет новых непрочитанных сообщений. Точка отсчета / Point Doom [боевик, драма, криминал, 2000] DVDRip, Dvo

salma3

3 | 1

1.41 ГБ


Начать новую тему Ответить на тему  [ 1 сообщение ] 




Для Мосгорсуда, Роскомнадзора и рекламодателей:: mosgorsud-torrent[собачка]yandex.ru