Торрент файл
скачать торрент магнет ссылка Добавлен: 08 янв 2012, 23:40
Размер: 4.36 ГБ
Сидеров: 1
Личеров: 5
Автор

СообщениеДобавлено: 08 янв 2012, 23:40 

Не в сети
Супермодератор
Аватара пользователя
Дата регистрации:
11 апр 2010, 18:10
Спасибо: 5802 / 7
Сообщения: 56779
Домовой

Перевод: Не требуется
Субтитры: Отсутствуют
Формат: DVD5, DVD Video, MPEG2, AC3
Страна: Россия
Режиссер: Карен Оганесян
Жанр: Триллер
Продолжительность: 01:45:35
Год выпуска: 2008
В ролях: Константин Хабенский, Владимир Машков, Чулпан Хаматова, Армен Джигарханян, Виталий Кищенко, Рамиль Сабитов, Ольга Сухорукова, Олег Чудницов, Олег Петровский, Александр Адабашьян, ...

Описание: Автор бульварных детективов Антон Праченко переживает творческий кризис. Выйти из него ему весьма необычным способом помогает наемный убийца по прозвищу Домовой, который на его глазах безжалостно расстреливает машину с двумя людьми. Киллер становится его идейным вдохновителем, жестко и наглядно открывающим ему суровую правду жизни. Теперь они неразрывно связаны друг с другом…

Рейтинг на КиноПоиск: 7.274 (5 060)
Рейтинг на IMDb: 7.2/10

Видео: 720X576 (PAL 16:9), 25.000fps, MPEG-2 Video, ~6 642Kbps
Аудио: Русский 48.0KHz, AC-3, 6 ch, ~448Kbps


Трейлер к фильму
Слоган: «Одна смерть на двоих»

Удалено: Установки [Russian (DTS, 6 ch)]; Дополнительно[каталог, смотрите на DVD, создатели и исполнители, фильм о фильме]
Оставленно: Меню с возможностью выбора эпизода [главное меню и меню эпизодов статичное]
Процент сжатия: 11.7%

General
Complete name: C:\загрузка\The_Ghost_[tfile.ru]\VIDEO_TS\VTS_04_3.VOB
Format: MPEG-PS
File size: 1 024 MiB
Duration: 23mn 19s
Overall bit rate: 6 138 Kbps

Video
ID: 224 (0xE0)
Format: MPEG Video
Format version: Version 2
Format profile: Main@Main
Format settings, Matrix: Default
Duration: 23mn 19s
Bit rate mode: Variable
Bit rate: 5 446 Kbps
Nominal bit rate: 6 642 Kbps
Width: 720 pixels
Height: 576 pixels
Display aspect ratio: 16/9
Frame rate: 25.000 fps
Standard: PAL
Colorimetry: 4:2:0
Scan type: Progressive
Scan order: Bottom Field First
Bits/(Pixel*Frame): 0.525
Stream size: 909 MiB (89%)

Audio
ID: 128 (0x80)
Format: AC-3
Format/Info: Audio Coding 3
Duration: 23mn 19s
Bit rate mode: Constant
Bit rate: 448 Kbps
Channel(s): 6 channels
Channel positions: Front: L C R, Surround: L R, LFE
Sampling rate: 48.0 KHz
Video delay: -480ms
Stream size: 74.7 MiB (7%)

Menu
Format: DVD-Video

* Вагон, в котором Домовой едет в метро после первого заказного убийства, принадлежит Замоскворецкой линии Московского метрополитена. При этом Домовой проезжает перегон между станциями «Автозаводская» и «Коломенская», где линия выходит на поверхность и по Нагатинскому мосту пересекает реку Москву.

Сценарий: Олег Маловичко, Сергей Юдаков
Продюсер: Сергей Даниелян, Рубен Дишдишян, Анна Меликян, ...
Оператор: Заур Болотаев
Композитор: Инсайт, Нино Катамадзе
Бюджет: $3 000 000
Сборы в России: $2 401 660
Зрители: Россия385.3 тыс.
Премьера мир: 6 сентября 2008
Премьера РФ: 13 ноября 2008, «Централ Партнершип»
Релиз на DVD: 5 февраля 2009, 11 декабря 2008, «CP-DIGITAL»

1. Централ Партнершип
2. Magnum

Кинонаграды «MTV-Россия», 2009 год
Номинации (2):
* Лучший злодей (Владимир Машков)
* Самая зрелищная сцена


















Поделиться:




реклама партнёра


Вернуться к началу
 Профиль Отправить личное сообщение  
 
   Похожие торренты   Автор   Торрент   Размер 
В этой теме нет новых непрочитанных сообщений. Королева красоты [Серия 1-12 из 12] (Карен Оганесян) [Мелодрама, 2015] SATRip

Dracon

202 | 36

7.18 ГБ

В этой теме нет новых непрочитанных сообщений. Королева красоты [01-12 из 12] (Карен Оганесян) [Мелодрама, 2015] HDTVRip 720p

Dracon

476 | 225

18.66 ГБ

В этой теме нет новых непрочитанных сообщений. Без границ (Карен Оганесян, Резо Гигинеишвили, Роман Прыгунов) [комедия, мелодрама, 2015] WEB-DL 1080p [iTunes]

Dracon

12520 | 1876

3.23 ГБ

В этой теме нет новых непрочитанных сообщений. Без границ (Карен Оганесян, Резо Гигинеишвили, Роман Прыгунов) [комедия, мелодрама, 2015] WEB-DLRip [iTunes]

Dracon

24143 | 2808

1.46 ГБ

В этой теме нет новых непрочитанных сообщений. Без границ (Карен Оганесян, Резо Гигинеишвили, Роман Прыгунов) [комедия, мелодрама, 2015] WEB-DL 720p [iTunes]

Dracon

7496 | 1050

2.93 ГБ

В этой теме нет новых непрочитанных сообщений. Дабл трабл (Эдуард Оганесян) [Комедия, 2015] WEB-DL 1080p

Dracon

942 | 18

2.83 ГБ

В этой теме нет новых непрочитанных сообщений. Дабл трабл (Эдуард Оганесян) [Комедия, 2015] WEB-DL 720p

Dracon

209 | 7

2.58 ГБ


Начать новую тему Ответить на тему  [ 1 сообщение ] 




Для Мосгорсуда, Роскомнадзора и рекламодателей:: mosgorsud-torrent[собачка]yandex.ru