Торрент файл
скачать торрент магнет ссылка Добавлен: 08 янв 2012, 23:37
Размер: 4.04 ГБ
Сидеров: 0
Личеров: 9
Автор

СообщениеДобавлено: 08 янв 2012, 23:37 

Не в сети
Супермодератор
Аватара пользователя
Дата регистрации:
11 апр 2010, 18:10
Спасибо: 5802 / 7
Сообщения: 56779
Универсальный солдат 3: Возрождение / Universal Soldier: Regeneration


Перевод: Профессиональный (многоголосый, закадровый)
Субтитры: отсутствуют
Формат: DVD5, DVD Video, MPEG2, AC3
Страна: США
Режиссер: Джон Хайамс
Жанр: фантастика, боевик, триллер, драма
Продолжительность: 01:32:56
Год выпуска: 2009

В ролях: Дольф Лундгрен, Жан-Клод Ван Дамм, Андрей Арловский, Кори Джонсон, Захари Бахаров, Аки Авни, Гарри Купер, Джон Фу, Эмили Джойс, Джон Ласковски

Описание: Чеченский террорист по фамилии Топофф захватывает Чернобыльскую АЭС и угрожает взорвать ее. На его стороне — бывший сотрудник программы «Универсальный солдат», поставивший на службу террористу грозное оружие — одного из своих подопечных. Ситуация осложняется тем, что в заложниках оказываются дети видного государственного деятеля. Попытки освободить опасный объект превращаются в кровавую бойню. И тогда в схватку с модернизированным унисолом вступает Люк Девро. Однако его ждёт встреча не только со сбродом Топоффа и унисолом нового поколения, но и со своим старым знакомым — сержантом Эндрю Скоттом.

Рейтинг на IMDB: 5.8/10
Рейтинг MPAA: R
Рейтинг на Кинопоиск.RU: 4.214

Видео: 720 x 576 (PAL 16/9), MPEG-2 Video, 25.000 fps, ~8000 кбит/с
Аудио: Русский: 48 kHz, AC3, 6 ch, ~384 kbps avg [Профессиональный (многоголосый, закадровый),Лицензия (R5)]








General
Complete name: D:\Universal_Soldier_3_[tfile.ru]\VIDEO_TS.BUP
Format: DVD Video
Format profile: Menu
File size: 12.0 KiB

Video
ID: 224 (0xE0)
Format: MPEG Video
Format version: Version 2
Bit rate mode: Variable
Width: 720 pixels
Height: 576 pixels
Display aspect ratio: 16:9
Frame rate: 25.000 fps
Standard: PAL

Audio
Format: AC-3
Format/Info: Audio Coding 3
Channel(s): 2 channels
Sampling rate: 48.0 KHz

Text
Format: RLE
Format/Info: Run-length encoding
Bit depth: 2 bits

General
Complete name: D:\Universal_Soldier_3_[tfile.ru]\VIDEO_TS.IFO
Format: DVD Video
Format profile: Menu
File size: 12.0 KiB

Video
ID: 224 (0xE0)
Format: MPEG Video
Format version: Version 2
Bit rate mode: Variable
Width: 720 pixels
Height: 576 pixels
Display aspect ratio: 16:9
Frame rate: 25.000 fps
Standard: PAL

Audio
Format: AC-3
Format/Info: Audio Coding 3
Channel(s): 2 channels
Sampling rate: 48.0 KHz

Text
Format: RLE
Format/Info: Run-length encoding
Bit depth: 2 bits

General
Complete name: D:\Universal_Soldier_3_[tfile.ru]\VIDEO_TS.VOB
Format: MPEG-PS
File size: 14.3 MiB
Duration: 14s 190ms
Overall bit rate: 8 445 Kbps

Video
ID: 224 (0xE0)
Format: MPEG Video
Format version: Version 2
Format profile: Main@Main
Format settings, BVOP: Yes
Format settings, Matrix: Default
Duration: 14s 190ms
Bit rate mode: Constant
Bit rate: 8 000 Kbps
Width: 720 pixels
Height: 576 pixels
Display aspect ratio: 16:9
Frame rate: 25.000 fps
Standard: PAL
Color space: YUV
Chroma subsampling: 4:2:0
Bit depth: 8 bits
Bits/(Pixel*Frame): 0.772
Stream size: 13.7 MiB (96%)

Audio
ID: 128 (0x80)
Format: AC-3
Format/Info: Audio Coding 3
Mode extension: CM (complete main)
Duration: 14s 112ms
Bit rate mode: Constant
Bit rate: 192 Kbps
Channel(s): 2 channels
Channel positions: Front: L R
Sampling rate: 48.0 KHz
Bit depth: 16 bits
Video delay: -50ms
Stream size: 331 KiB (2%)

Menu

General
Complete name: D:\Universal_Soldier_3_[tfile.ru]\VTS_01_0.BUP
Format: DVD Video
Format profile: Program
File size: 70.0 KiB

Video
ID: 224 (0xE0)
Format: MPEG Video
Format version: Version 2
Bit rate mode: Variable
Width: 720 pixels
Height: 576 pixels
Display aspect ratio: 16:9
Frame rate: 25.000 fps
Standard: PAL

Audio
ID: 128 (0x80)
Format: AC-3
Format/Info: Audio Coding 3
Channel(s): 6 channels
Sampling rate: 48.0 KHz
Language: English

Menu
List (Audio): 0

General
Complete name: D:\Universal_Soldier_3_[tfile.ru]\VTS_01_0.IFO
Format: DVD Video
Format profile: Program
File size: 70.0 KiB

Video
ID: 224 (0xE0)
Format: MPEG Video
Format version: Version 2
Bit rate mode: Variable
Width: 720 pixels
Height: 576 pixels
Display aspect ratio: 16:9
Frame rate: 25.000 fps
Standard: PAL

Audio
ID: 128 (0x80)
Format: AC-3
Format/Info: Audio Coding 3
Channel(s): 6 channels
Sampling rate: 48.0 KHz
Language: English

Menu
List (Audio): 0

General
Complete name: D:\Universal_Soldier_3_[tfile.ru]\VTS_01_0.VOB
Format: MPEG-PS
File size: 93.1 MiB
Duration: 33s 840ms
Overall bit rate: 23.1 Mbps

Video
ID: 224 (0xE0)
Format: MPEG Video
Format version: Version 2
Format profile: Main@Main
Format settings, BVOP: Yes
Format settings, Matrix: Default
Duration: 33s 840ms
Bit rate mode: Variable
Bit rate: 22.4 Mbps
Nominal bit rate: 9 000 Kbps
Width: 720 pixels
Height: 576 pixels
Display aspect ratio: 16:9
Frame rate: 25.000 fps
Standard: PAL
Color space: YUV
Chroma subsampling: 4:2:0
Bit depth: 8 bits
Scan type: Interlaced
Scan order: Top Field First
Bits/(Pixel*Frame): 2.157
Stream size: 90.2 MiB (97%)

Audio
ID: 128 (0x80)
Format: AC-3
Format/Info: Audio Coding 3
Mode extension: CM (complete main)
Duration: 33s 760ms
Bit rate mode: Constant
Bit rate: 256 Kbps
Channel(s): 2 channels
Channel positions: Front: L R
Sampling rate: 48.0 KHz
Bit depth: 16 bits
Stream size: 1.03 MiB (1%)

Text #1
ID: 32 (0x20)
Format: RLE
Format/Info: Run-length encoding

Text #2
ID: 33 (0x21)
Format: RLE
Format/Info: Run-length encoding

Menu

General
Complete name: D:\Universal_Soldier_3_[tfile.ru]\VTS_01_1.VOB
Format: MPEG-PS
File size: 1 024 MiB
Duration: 23mn 34s
Overall bit rate: 6 071 Kbps

Video
ID: 224 (0xE0)
Format: MPEG Video
Format version: Version 2
Format profile: Main@Main
Format settings, BVOP: Yes
Format settings, Matrix: Default
Duration: 23mn 34s
Bit rate mode: Variable
Bit rate: 5 566 Kbps
Nominal bit rate: 8 000 Kbps
Width: 720 pixels
Height: 576 pixels
Display aspect ratio: 16:9
Frame rate: 25.000 fps
Standard: PAL
Color space: YUV
Chroma subsampling: 4:2:0
Bit depth: 8 bits
Scan type: Interlaced
Scan order: Top Field First
Bits/(Pixel*Frame): 0.537
Stream size: 939 MiB (92%)

Audio
ID: 128 (0x80)
Format: AC-3
Format/Info: Audio Coding 3
Mode extension: CM (complete main)
Duration: 23mn 34s
Bit rate mode: Constant
Bit rate: 384 Kbps
Channel(s): 6 channels
Channel positions: Front: L C R, Side: L R, LFE
Sampling rate: 48.0 KHz
Bit depth: 16 bits
Stream size: 64.7 MiB (6%)

Menu

General
Complete name: D:\Universal_Soldier_3_[tfile.ru]\VTS_01_2.VOB
Format: MPEG-PS
File size: 1 024 MiB
Duration: 22mn 16s
Overall bit rate: 6 423 Kbps

Video
ID: 224 (0xE0)
Format: MPEG Video
Format version: Version 2
Format profile: Main@Main
Format settings, BVOP: Yes
Format settings, Matrix: Default
Duration: 22mn 16s
Bit rate mode: Variable
Bit rate: 5 911 Kbps
Nominal bit rate: 8 000 Kbps
Width: 720 pixels
Height: 576 pixels
Display aspect ratio: 16:9
Frame rate: 25.000 fps
Standard: PAL
Color space: YUV
Chroma subsampling: 4:2:0
Bit depth: 8 bits
Scan type: Interlaced
Scan order: Top Field First
Bits/(Pixel*Frame): 0.570
Stream size: 942 MiB (92%)

Audio
ID: 128 (0x80)
Format: AC-3
Format/Info: Audio Coding 3
Mode extension: CM (complete main)
Duration: 22mn 16s
Bit rate mode: Constant
Bit rate: 384 Kbps
Channel(s): 6 channels
Channel positions: Front: L C R, Side: L R, LFE
Sampling rate: 48.0 KHz
Bit depth: 16 bits
Video delay: -272ms
Stream size: 61.2 MiB (6%)

Menu

General
Complete name: D:\Universal_Soldier_3_[tfile.ru]\VTS_01_3.VOB
Format: MPEG-PS
File size: 1 024 MiB
Duration: 24mn 25s
Overall bit rate: 5 860 Kbps

Video
ID: 224 (0xE0)
Format: MPEG Video
Format version: Version 2
Format profile: Main@Main
Format settings, BVOP: Yes
Format settings, Matrix: Default
Format settings, GOP: M=3, N=12
Duration: 24mn 25s
Bit rate mode: Variable
Bit rate: 5 359 Kbps
Nominal bit rate: 8 000 Kbps
Width: 720 pixels
Height: 576 pixels
Display aspect ratio: 16:9
Frame rate: 25.000 fps
Standard: PAL
Color space: YUV
Chroma subsampling: 4:2:0
Bit depth: 8 bits
Scan type: Interlaced
Scan order: Top Field First
Bits/(Pixel*Frame): 0.517
Stream size: 936 MiB (91%)

Audio
ID: 128 (0x80)
Format: AC-3
Format/Info: Audio Coding 3
Mode extension: CM (complete main)
Duration: 24mn 25s
Bit rate mode: Constant
Bit rate: 384 Kbps
Channel(s): 6 channels
Channel positions: Front: L C R, Side: L R, LFE
Sampling rate: 48.0 KHz
Bit depth: 16 bits
Video delay: -296ms
Stream size: 67.1 MiB (7%)

Menu

General
Complete name: D:\Universal_Soldier_3_[tfile.ru]\VTS_01_4.VOB
Format: MPEG-PS
File size: 961 MiB
Duration: 22mn 39s
Overall bit rate: 5 928 Kbps

Video
ID: 224 (0xE0)
Format: MPEG Video
Format version: Version 2
Format profile: Main@Main
Format settings, BVOP: Yes
Format settings, Matrix: Default
Format settings, GOP: M=3, N=12
Duration: 22mn 39s
Bit rate mode: Variable
Bit rate: 5 426 Kbps
Nominal bit rate: 8 000 Kbps
Width: 720 pixels
Height: 576 pixels
Display aspect ratio: 16:9
Frame rate: 25.000 fps
Standard: PAL
Color space: YUV
Chroma subsampling: 4:2:0
Bit depth: 8 bits
Scan type: Interlaced
Scan order: Top Field First
Bits/(Pixel*Frame): 0.523
Stream size: 879 MiB (92%)

Audio
ID: 128 (0x80)
Format: AC-3
Format/Info: Audio Coding 3
Mode extension: CM (complete main)
Duration: 22mn 39s
Bit rate mode: Constant
Bit rate: 384 Kbps
Channel(s): 6 channels
Channel positions: Front: L C R, Side: L R, LFE
Sampling rate: 48.0 KHz
Bit depth: 16 bits
Video delay: -288ms
Stream size: 62.2 MiB (6%)

Menu

Поделиться:




реклама партнёра


Вернуться к началу
 Профиль Отправить личное сообщение  
 
   Похожие торренты   Автор   Торрент   Размер 
В этой теме нет новых непрочитанных сообщений. Солдат / Soldier [фантастика, боевик, драма, 1998] BDRip 1080p, Dub+2Mvo+2Avo+Sub

salma3

12 | 2

11.11 ГБ

В этой теме нет новых непрочитанных сообщений. Я солдат / I am soldier (Ронни Томпсон) [2014, боевик, триллер, военный, HDRip] dvo

Nickolas3435

912 | 26

1.45 ГБ

В этой теме нет новых непрочитанных сообщений. Нация Z / Z Nation [S01-02] (Джон Хайамс, Абрам Кокс, Рэйчел Голденберг) [2015, Боевик, Драма, Ужасы, Фантастика, WEB-DL 720p | BaibaKo]

Dracon

11 | 25

40.23 ГБ

В этой теме нет новых непрочитанных сообщений. Нация Z / Z Nation [02х01-14 из 15] (Джон Хайамс, Абрам Кокс, Рэйчел Голденберг) [ужасы, фантастика, боевик, 2015] WEB-DLRip 1080p, Mvo [BaibaKo]

Dracon

12 | 45

24.87 ГБ

В этой теме нет новых непрочитанных сообщений. Нация Z / Z Nation [02х01-06 из 13] (Джон Хайамс, Абрам Кокс, Рэйчел Голденберг) [ужасы, фантастика, боевик, 2015] WEB-DLRip 1080p, Mvo [BaibaKo]

Dracon

78 | 282

10.67 ГБ

В этой теме нет новых непрочитанных сообщений. Нация Z / Z Nation [S01-02] (Джон Хайамс, Абрам Кокс, Рэйчел Голденберг) [ужасы, фантастика, боевик, 2014-2015] WEB-DLRip 720p, Mvo [LostFilm]

Dracon

22 | 107

36.03 ГБ

В этой теме нет новых непрочитанных сообщений. Отпуск: Солдат всегда на службе / Солдат / Holiday [боевик, триллер, мелодрама, 2014] DVDRip, Mvo+Sub

salma3

12 | 4

2.19 ГБ


Начать новую тему Ответить на тему  [ 1 сообщение ] 




Для Мосгорсуда, Роскомнадзора и рекламодателей:: mosgorsud-torrent[собачка]yandex.ru