Торрент файл
скачать торрент магнет ссылка Добавлен: 08 янв 2012, 23:37
Размер: 4.37 ГБ
Сидеров: 1
Личеров: 4
Автор

СообщениеДобавлено: 08 янв 2012, 23:37 

Не в сети
Супермодератор
Аватара пользователя
Дата регистрации:
11 апр 2010, 18:10
Спасибо: 5802 / 7
Сообщения: 56779
Пристрели их / Shoot `Em Up


Перевод: Профессиональный (полное дублирование)
Cубтитры: Русский, Английский
Формат: DVD5, DVD Video, MPEG2, AC3
Страна: США
Режиссер: Майкл Дэвис
Жанр: боевик, триллер, комедия, приключения, криминал
Продолжительность: 01:26:32
Год выпуска: 2007

В ролях: Клайв Оуэн, Пол Джаматти, Моника Беллуччи, Стивен МакХэтти, Грег Брайк, Дэниэл Пилон, Сидни Менде-Гибсон, Лукас Менде-Гибсон, Кейлин Йеллоулис, Рамона Прингл

Описание: Изгой, живущий воспоминаниями о собственном трагическом прошлом, спасает от верной смерти грудного младенца, оказавшись впутанным в правительственный заговор. Вместе с проституткой, ублажающей фантазии клиентов о грудном вскармливании и берущей на себя заботу о малыше, герой отсчитывает последние деньки двух коррумпированных чиновников.

Рейтинг на IMDB: 6.9/10
Рейтинг MPAA: R
Рейтинг на Кинопоиск.RU: 7.253

Видео: 720х576 (PAL 16/9), MPEG-2 Video, 25 fps, ~7 500 Kbps
Аудио #1: Русский: 48 kHz, AC3, 6 ch, ~384 kbps avg [Профессиональный (полное дублирование)]
Аудио #2: Английский: 48 kHz, AC3, 6 ch, ~448 kbps avg [Оригинал]

Доп.информация:
    Удалено:
    - польская звуковая дорожка
    - аудиокомментарии сценариста/режиссера
    - удаленные сцены
    - рекламный трейлер
    - польские, украинские, эстонские, латышские, литовские субтитры
    Оставлено:
    - русская и английская дорожка
    - русские и английские субтитры
    - в доп.материалах: "Балет из пуль: съемки фильма "Пристрели их" (с русскими субтитрами)
    Видео не пережималось












General
Complete name: D:\Shoot_Em_Up_[tfile.ru]\VIDEO_TS\VIDEO_TS.BUP
Format: DVD Video
Format profile: Menu
File size: 14.0 KiB

Video
ID: 224 (0xE0)
Format: MPEG Video
Format version: Version 2
Bit rate mode: Variable
Width: 720 pixels
Height: 576 pixels
Display aspect ratio: 16:9
Frame rate: 25.000 fps
Standard: PAL

Text
Format: RLE
Format/Info: Run-length encoding
Bit depth: 2 bits

General
Complete name: D:\Shoot_Em_Up_[tfile.ru]\VIDEO_TS\VIDEO_TS.IFO
Format: DVD Video
Format profile: Menu
File size: 14.0 KiB

Video
ID: 224 (0xE0)
Format: MPEG Video
Format version: Version 2
Bit rate mode: Variable
Width: 720 pixels
Height: 576 pixels
Display aspect ratio: 16:9
Frame rate: 25.000 fps
Standard: PAL

Text
Format: RLE
Format/Info: Run-length encoding
Bit depth: 2 bits

General
Complete name: D:\Shoot_Em_Up_[tfile.ru]\VIDEO_TS\VIDEO_TS.VOB
Format: MPEG-PS
File size: 124 KiB
Duration: 198ms
Overall bit rate: 5 130 Kbps

Video
ID: 224 (0xE0)
Format: MPEG Video
Format version: Version 2
Format profile: Main@Main
Format settings, BVOP: No
Format settings, Matrix: Default
Format settings, GOP: N=1
Duration: 198ms
Bit rate mode: Constant
Width: 720 pixels
Height: 576 pixels
Display aspect ratio: 16:9
Frame rate: 25.000 fps
Standard: PAL
Color space: YUV
Chroma subsampling: 4:2:0
Bit depth: 8 bits
Scan type: Progressive
Scan order: Top Field First

Text #1
ID: 32 (0x20)
Format: RLE
Format/Info: Run-length encoding

Text #2
ID: 33 (0x21)
Format: RLE
Format/Info: Run-length encoding

Menu

General
Complete name: D:\Shoot_Em_Up_[tfile.ru]\VIDEO_TS\VTS_01_0.BUP
Format: DVD Video
Format profile: Program
File size: 72.0 KiB

Video
ID: 224 (0xE0)
Format: MPEG Video
Format version: Version 2
Bit rate mode: Variable
Width: 720 pixels
Height: 576 pixels
Display aspect ratio: 16:9
Frame rate: 25.000 fps
Standard: PAL

Audio #1
ID: 128 (0x80)
Format: AC-3
Format/Info: Audio Coding 3
Channel(s): 6 channels
Sampling rate: 48.0 KHz
Language: English

Audio #2
Format: AC-3
Format/Info: Audio Coding 3
Channel(s): 6 channels
Sampling rate: 48.0 KHz
Language: Polish

Audio #3
ID: 130 (0x82)
Format: AC-3
Format/Info: Audio Coding 3
Channel(s): 6 channels
Sampling rate: 48.0 KHz
Language: Russian

Audio #4
Format: AC-3
Format/Info: Audio Coding 3
Channel(s): 2 channels
Sampling rate: 48.0 KHz
Language: English
Language, more info: Director's comments

Audio #5
Format: AC-3
Format/Info: Audio Coding 3
Channel(s): 6 channels
Sampling rate: 48.0 KHz
Language: English

Text #1
ID: 32 (0x20)
Format: RLE
Format/Info: Run-length encoding
Bit depth: 2 bits
Language: English

Text #2
Format: RLE
Format/Info: Run-length encoding
Bit depth: 2 bits
Language: Polish

Text #3
ID: 34 (0x22)
Format: RLE
Format/Info: Run-length encoding
Bit depth: 2 bits
Language: Russian

Text #4
Format: RLE
Format/Info: Run-length encoding
Bit depth: 2 bits
Language: Estonian

Text #5
Format: RLE
Format/Info: Run-length encoding
Bit depth: 2 bits
Language: Latvian

Text #6
Format: RLE
Format/Info: Run-length encoding
Bit depth: 2 bits
Language: Lithuanian

Text #7
Format: RLE
Format/Info: Run-length encoding
Bit depth: 2 bits
Language: Ukrainian

Text #8
ID: 32 (0x20) / 32 (0x20)

Text #9

Text #10

Text #11

Text #12
ID: 32 (0x20) / 32 (0x20)

Text #13

Text #14

Text #15

Text #16

Text #17

Text #18

Text #19

Text #20

Text #21
ID: 160 (0xA0) / 160 (0xA0)

Text #22
ID: 160 (0xA0) / 160 (0xA0)

Text #23
ID: 160 (0xA0) / 160 (0xA0)

Text #24
ID: 160 (0xA0) / 160 (0xA0)

Text #25
ID: 160 (0xA0) / 160 (0xA0)

Text #26
ID: 160 (0xA0) / 160 (0xA0)

Text #27
ID: 160 (0xA0) / 160 (0xA0)

Text #28
ID: 160 (0xA0) / 160 (0xA0)

Text #29
ID: 160 (0xA0) / 160 (0xA0)

Text #30
ID: 160 (0xA0) / 160 (0xA0)

Text #31
ID: 160 (0xA0) / 160 (0xA0)

Menu #1
List (Audio): 0 / 2
List (Subtitles 4/3): 0 / 0
List (Subtitles Wide): 0 / 2
List (Subtitles Letterbox): 0 / 2
List (Subtitles Pan&Scan): 0 / 0

Menu #2
ID: 32 (0x20) / 32 (0x20)
List (Subtitles 4/3): 0 / 1 / 2
List (Subtitles Wide): 0 / 0 / 0
List (Subtitles Letterbox): 0 / 0 / 0
List (Subtitles Pan&Scan): 0 / 0 / 0

Menu #3
ID: 160 (0xA0) / 160 (0xA0)
List (Subtitles 4/3): 0 / 0 / 0 / 0 / 0 / 0 / 0 / 0 / 0 / 0 / 0 / 0
List (Subtitles Wide): 128 / 128 / 128 / 128 / 128 / 128 / 128 / 128 / 128 / 128 / 128 / 128
List (Subtitles Letterbox): 128 / 128 / 128 / 128 / 128 / 128 / 128 / 128 / 128 / 128 / 128 / 128
List (Subtitles Pan&Scan): 0 / 0 / 0 / 0 / 0 / 0 / 0 / 0 / 0 / 0 / 0 / 0

General
Complete name: D:\Shoot_Em_Up_[tfile.ru]\VIDEO_TS\VTS_01_0.IFO
Format: DVD Video
Format profile: Program
File size: 72.0 KiB

Video
ID: 224 (0xE0)
Format: MPEG Video
Format version: Version 2
Bit rate mode: Variable
Width: 720 pixels
Height: 576 pixels
Display aspect ratio: 16:9
Frame rate: 25.000 fps
Standard: PAL

Audio #1
ID: 128 (0x80)
Format: AC-3
Format/Info: Audio Coding 3
Channel(s): 6 channels
Sampling rate: 48.0 KHz
Language: English

Audio #2
Format: AC-3
Format/Info: Audio Coding 3
Channel(s): 6 channels
Sampling rate: 48.0 KHz
Language: Polish

Audio #3
ID: 130 (0x82)
Format: AC-3
Format/Info: Audio Coding 3
Channel(s): 6 channels
Sampling rate: 48.0 KHz
Language: Russian

Audio #4
Format: AC-3
Format/Info: Audio Coding 3
Channel(s): 2 channels
Sampling rate: 48.0 KHz
Language: English
Language, more info: Director's comments

Audio #5
Format: AC-3
Format/Info: Audio Coding 3
Channel(s): 6 channels
Sampling rate: 48.0 KHz
Language: English

Text #1
ID: 32 (0x20)
Format: RLE
Format/Info: Run-length encoding
Bit depth: 2 bits
Language: English

Text #2
Format: RLE
Format/Info: Run-length encoding
Bit depth: 2 bits
Language: Polish

Text #3
ID: 34 (0x22)
Format: RLE
Format/Info: Run-length encoding
Bit depth: 2 bits
Language: Russian

Text #4
Format: RLE
Format/Info: Run-length encoding
Bit depth: 2 bits
Language: Estonian

Text #5
Format: RLE
Format/Info: Run-length encoding
Bit depth: 2 bits
Language: Latvian

Text #6
Format: RLE
Format/Info: Run-length encoding
Bit depth: 2 bits
Language: Lithuanian

Text #7
Format: RLE
Format/Info: Run-length encoding
Bit depth: 2 bits
Language: Ukrainian

Text #8
ID: 32 (0x20) / 32 (0x20)

Text #9

Text #10

Text #11

Text #12
ID: 32 (0x20) / 32 (0x20)

Text #13

Text #14

Text #15

Text #16

Text #17

Text #18

Text #19

Text #20

Text #21
ID: 160 (0xA0) / 160 (0xA0)

Text #22
ID: 160 (0xA0) / 160 (0xA0)

Text #23
ID: 160 (0xA0) / 160 (0xA0)

Text #24
ID: 160 (0xA0) / 160 (0xA0)

Text #25
ID: 160 (0xA0) / 160 (0xA0)

Text #26
ID: 160 (0xA0) / 160 (0xA0)

Text #27
ID: 160 (0xA0) / 160 (0xA0)

Text #28
ID: 160 (0xA0) / 160 (0xA0)

Text #29
ID: 160 (0xA0) / 160 (0xA0)

Text #30
ID: 160 (0xA0) / 160 (0xA0)

Text #31
ID: 160 (0xA0) / 160 (0xA0)

Menu #1
List (Audio): 0 / 2
List (Subtitles 4/3): 0 / 0
List (Subtitles Wide): 0 / 2
List (Subtitles Letterbox): 0 / 2
List (Subtitles Pan&Scan): 0 / 0

Menu #2
ID: 32 (0x20) / 32 (0x20)
List (Subtitles 4/3): 0 / 1 / 2
List (Subtitles Wide): 0 / 0 / 0
List (Subtitles Letterbox): 0 / 0 / 0
List (Subtitles Pan&Scan): 0 / 0 / 0

Menu #3
ID: 160 (0xA0) / 160 (0xA0)
List (Subtitles 4/3): 0 / 0 / 0 / 0 / 0 / 0 / 0 / 0 / 0 / 0 / 0 / 0
List (Subtitles Wide): 128 / 128 / 128 / 128 / 128 / 128 / 128 / 128 / 128 / 128 / 128 / 128
List (Subtitles Letterbox): 128 / 128 / 128 / 128 / 128 / 128 / 128 / 128 / 128 / 128 / 128 / 128
List (Subtitles Pan&Scan): 0 / 0 / 0 / 0 / 0 / 0 / 0 / 0 / 0 / 0 / 0 / 0

General
Complete name: D:\Shoot_Em_Up_[tfile.ru]\VIDEO_TS\VTS_01_0.VOB
Format: MPEG-PS
File size: 100 MiB
Duration: 36s 74ms
Overall bit rate: 23.3 Mbps

Video
ID: 224 (0xE0)
Format: MPEG Video
Format version: Version 2
Format profile: Main@Main
Format settings, BVOP: Yes
Format settings, Matrix: Default
Duration: 40ms
Bit rate mode: Variable
Bit rate: 22.5 Mbps
Width: 720 pixels
Height: 576 pixels
Display aspect ratio: 16:9
Frame rate: 25.000 fps
Standard: PAL
Color space: YUV
Chroma subsampling: 4:2:0
Bit depth: 8 bits
Bits/(Pixel*Frame): 2.166
Stream size: 110 KiB (0%)

Audio
ID: 128 (0x80)
Format: AC-3
Format/Info: Audio Coding 3
Mode extension: CM (complete main)
Duration: 36s 74ms
Bit rate mode: Constant
Bit rate: 384 Kbps
Channel(s): 6 channels
Channel positions: Front: L C R, Side: L R, LFE
Sampling rate: 48.0 KHz
Bit depth: 16 bits
Video delay: 406ms
Stream size: 1.65 MiB (2%)

Text #1
ID: 32 (0x20)
Format: RLE
Format/Info: Run-length encoding
Video delay: 4s 166ms

Text #2
ID: 33 (0x21)
Format: RLE
Format/Info: Run-length encoding
Video delay: 4s 166ms

Menu

General
Complete name: D:\Shoot_Em_Up_[tfile.ru]\VIDEO_TS\VTS_01_1.VOB
Format: MPEG-PS
File size: 1 024 MiB
Duration: 24mn 18s
Overall bit rate: 5 891 Kbps

Video
ID: 224 (0xE0)
Format: MPEG Video
Format version: Version 2
Format profile: Main@Main
Format settings, BVOP: Yes
Format settings, Matrix: Default
Format settings, GOP: M=3, N=15
Duration: 24mn 18s
Bit rate mode: Variable
Bit rate: 4 941 Kbps
Nominal bit rate: 7 500 Kbps
Width: 720 pixels
Height: 576 pixels
Display aspect ratio: 16:9
Frame rate: 25.000 fps
Standard: PAL
Color space: YUV
Chroma subsampling: 4:2:0
Bit depth: 8 bits
Scan type: Interlaced
Scan order: Top Field First
Bits/(Pixel*Frame): 0.477
Stream size: 859 MiB (84%)

Audio #1
ID: 128 (0x80)
Format: AC-3
Format/Info: Audio Coding 3
Mode extension: CM (complete main)
Duration: 24mn 18s
Bit rate mode: Constant
Bit rate: 448 Kbps
Channel(s): 6 channels
Channel positions: Front: L C R, Side: L R, LFE
Sampling rate: 48.0 KHz
Bit depth: 16 bits
Video delay: -104ms
Stream size: 77.9 MiB (8%)

Audio #2
ID: 130 (0x82)
Format: AC-3
Format/Info: Audio Coding 3
Mode extension: CM (complete main)
Duration: 24mn 18s
Bit rate mode: Constant
Bit rate: 384 Kbps
Channel(s): 6 channels
Channel positions: Front: L C R, Side: L R, LFE
Sampling rate: 48.0 KHz
Bit depth: 16 bits
Video delay: -104ms
Stream size: 66.8 MiB (7%)

Text #1
ID: 32 (0x20)
Format: RLE
Format/Info: Run-length encoding

Text #2
ID: 34 (0x22)
Format: RLE
Format/Info: Run-length encoding

Menu

General
Complete name: D:\Shoot_Em_Up_[tfile.ru]\VIDEO_TS\VTS_01_2.VOB
Format: MPEG-PS
File size: 1 024 MiB
Duration: 24mn 46s
Overall bit rate: 5 779 Kbps

Video
ID: 224 (0xE0)
Format: MPEG Video
Format version: Version 2
Format profile: Main@Main
Format settings, BVOP: Yes
Format settings, Matrix: Default
Format settings, GOP: M=3, N=15
Duration: 24mn 46s
Bit rate mode: Variable
Bit rate: 4 832 Kbps
Nominal bit rate: 7 500 Kbps
Width: 720 pixels
Height: 576 pixels
Display aspect ratio: 16:9
Frame rate: 25.000 fps
Standard: PAL
Color space: YUV
Chroma subsampling: 4:2:0
Bit depth: 8 bits
Scan type: Interlaced
Scan order: Top Field First
Bits/(Pixel*Frame): 0.466
Stream size: 856 MiB (84%)

Audio #1
ID: 128 (0x80)
Format: AC-3
Format/Info: Audio Coding 3
Mode extension: CM (complete main)
Duration: 24mn 46s
Bit rate mode: Constant
Bit rate: 448 Kbps
Channel(s): 6 channels
Channel positions: Front: L C R, Side: L R, LFE
Sampling rate: 48.0 KHz
Bit depth: 16 bits
Video delay: -464ms
Stream size: 79.4 MiB (8%)

Audio #2
ID: 130 (0x82)
Format: AC-3
Format/Info: Audio Coding 3
Mode extension: CM (complete main)
Duration: 24mn 46s
Bit rate mode: Constant
Bit rate: 384 Kbps
Channel(s): 6 channels
Channel positions: Front: L C R, Side: L R, LFE
Sampling rate: 48.0 KHz
Bit depth: 16 bits
Video delay: -496ms
Stream size: 68.0 MiB (7%)

Text #1
ID: 32 (0x20)
Format: RLE
Format/Info: Run-length encoding
Duration: 24mn 42s
Video delay: 600ms

Text #2
ID: 34 (0x22)
Format: RLE
Format/Info: Run-length encoding
Duration: 24mn 42s
Video delay: 720ms

Menu

General
Complete name: D:\Shoot_Em_Up_[tfile.ru]\VIDEO_TS\VTS_01_3.VOB
Format: MPEG-PS
File size: 1 024 MiB
Duration: 23mn 28s
Overall bit rate: 6 098 Kbps

Video
ID: 224 (0xE0)
Format: MPEG Video
Format version: Version 2
Format profile: Main@Main
Format settings, BVOP: Yes
Format settings, Matrix: Default
Format settings, GOP: M=3, N=15
Duration: 23mn 28s
Bit rate mode: Variable
Bit rate: 5 144 Kbps
Nominal bit rate: 7 500 Kbps
Width: 720 pixels
Height: 576 pixels
Display aspect ratio: 16:9
Frame rate: 25.000 fps
Standard: PAL
Color space: YUV
Chroma subsampling: 4:2:0
Bit depth: 8 bits
Scan type: Interlaced
Scan order: Top Field First
Bits/(Pixel*Frame): 0.496
Stream size: 864 MiB (84%)

Audio #1
ID: 128 (0x80)
Format: AC-3
Format/Info: Audio Coding 3
Mode extension: CM (complete main)
Duration: 23mn 28s
Bit rate mode: Constant
Bit rate: 448 Kbps
Channel(s): 6 channels
Channel positions: Front: L C R, Side: L R, LFE
Sampling rate: 48.0 KHz
Bit depth: 16 bits
Video delay: -264ms
Stream size: 75.2 MiB (7%)

Audio #2
ID: 130 (0x82)
Format: AC-3
Format/Info: Audio Coding 3
Mode extension: CM (complete main)
Duration: 23mn 28s
Bit rate mode: Constant
Bit rate: 384 Kbps
Channel(s): 6 channels
Channel positions: Front: L C R, Side: L R, LFE
Sampling rate: 48.0 KHz
Bit depth: 16 bits
Video delay: -264ms
Stream size: 64.5 MiB (6%)

Text #1
ID: 32 (0x20)
Format: RLE
Format/Info: Run-length encoding
Video delay: 2s 200ms

Text #2
ID: 34 (0x22)
Format: RLE
Format/Info: Run-length encoding
Video delay: 2s 240ms

Menu

General
Complete name: D:\Shoot_Em_Up_[tfile.ru]\VIDEO_TS\VTS_01_4.VOB
Format: MPEG-PS
File size: 422 MiB

Video
ID: 224 (0xE0)
Format: MPEG Video
Format version: Version 2
Format profile: Main@Main
Format settings, BVOP: Yes
Format settings, Matrix: Default
Format settings, GOP: M=3, N=15
Bit rate mode: Variable
Bit rate: 7 500 Kbps
Width: 720 pixels
Height: 576 pixels
Display aspect ratio: 16:9
Frame rate: 25.000 fps
Standard: PAL
Color space: YUV
Chroma subsampling: 4:2:0
Bit depth: 8 bits
Scan type: Interlaced
Scan order: Top Field First
Bits/(Pixel*Frame): 0.723

Audio #1
ID: 128 (0x80)
Format: AC-3
Format/Info: Audio Coding 3
Mode extension: CM (complete main)
Bit rate mode: Constant
Bit rate: 448 Kbps
Channel(s): 6 channels
Channel positions: Front: L C R, Side: L R, LFE
Sampling rate: 48.0 KHz
Bit depth: 16 bits
Video delay: -296ms

Audio #2
ID: 130 (0x82)
Format: AC-3
Format/Info: Audio Coding 3
Mode extension: CM (complete main)
Bit rate mode: Constant
Bit rate: 384 Kbps
Channel(s): 6 channels
Channel positions: Front: L C R, Side: L R, LFE
Sampling rate: 48.0 KHz
Bit depth: 16 bits
Video delay: -296ms

Text
ID: 34 (0x22)
Format: RLE
Format/Info: Run-length encoding

Menu

General
Complete name: D:\Shoot_Em_Up_[tfile.ru]\VIDEO_TS\VTS_02_0.BUP
Format: DVD Video
Format profile: Program
File size: 18.0 KiB

Video
ID: 224 (0xE0)
Format: MPEG Video
Format version: Version 2
Bit rate mode: Variable
Width: 720 pixels
Height: 576 pixels
Display aspect ratio: 16:9
Frame rate: 25.000 fps
Standard: PAL

Audio
ID: 128 (0x80)
Format: AC-3
Format/Info: Audio Coding 3
Channel(s): 6 channels
Sampling rate: 48.0 KHz
Language: English

Menu #1
List (Audio): 0

Menu #2

Menu #3

General
Complete name: D:\Shoot_Em_Up_[tfile.ru]\VIDEO_TS\VTS_02_0.IFO
Format: DVD Video
Format profile: Program
File size: 18.0 KiB

Video
ID: 224 (0xE0)
Format: MPEG Video
Format version: Version 2
Bit rate mode: Variable
Width: 720 pixels
Height: 576 pixels
Display aspect ratio: 16:9
Frame rate: 25.000 fps
Standard: PAL

Audio
ID: 128 (0x80)
Format: AC-3
Format/Info: Audio Coding 3
Channel(s): 6 channels
Sampling rate: 48.0 KHz
Language: English

Menu #1
List (Audio): 0

Menu #2

Menu #3

General
Complete name: D:\Shoot_Em_Up_[tfile.ru]\VIDEO_TS\VTS_02_0.VOB
Format: MPEG-PS
File size: 10.0 KiB
Duration: 40ms
Overall bit rate: 2 048 Kbps

Video
ID: 224 (0xE0)
Format: MPEG Video
Format version: Version 2
Format profile: Main@Main
Format settings, BVOP: No
Format settings, Matrix: Default
Format settings, GOP: N=1
Duration: 40ms
Bit rate mode: Variable
Bit rate: 9 800 Kbps
Width: 720 pixels
Height: 576 pixels
Display aspect ratio: 16:9
Frame rate: 25.000 fps
Standard: PAL
Color space: YUV
Chroma subsampling: 4:2:0
Bit depth: 8 bits
Scan type: Progressive
Scan order: Top Field First
Bits/(Pixel*Frame): 0.945
Stream size: 47.9 KiB

Menu

General
Complete name: D:\Shoot_Em_Up_[tfile.ru]\VIDEO_TS\VTS_02_1.VOB
Format: MPEG-PS
File size: 20.0 KiB
Duration: 26h 30mn
Overall bit rate: 1 bps

Video
ID: 224 (0xE0)
Format: MPEG Video
Format version: Version 2
Format profile: Main@Main
Format settings, BVOP: No
Format settings, Matrix: Default
Format settings, GOP: N=1
Duration: 26h 30mn
Bit rate mode: Variable
Width: 720 pixels
Height: 576 pixels
Display aspect ratio: 2.35:1
Frame rate: 25.000 fps
Standard: PAL
Color space: YUV
Chroma subsampling: 4:2:0
Bit depth: 8 bits
Scan type: Progressive
Scan order: Top Field First

Menu

General
Complete name: D:\Shoot_Em_Up_[tfile.ru]\VIDEO_TS\VTS_03_0.BUP
Format: DVD Video
Format profile: Program
File size: 18.0 KiB

Video
ID: 224 (0xE0)
Format: MPEG Video
Format version: Version 2
Bit rate mode: Variable
Width: 720 pixels
Height: 576 pixels
Display aspect ratio: 16:9
Frame rate: 25.000 fps
Standard: PAL

Audio #1
Format: AC-3
Format/Info: Audio Coding 3
Channel(s): 6 channels
Sampling rate: 48.0 KHz
Language: English

Audio #2
Format: AC-3
Format/Info: Audio Coding 3
Channel(s): 2 channels
Sampling rate: 48.0 KHz
Language: Polish

Audio #3
Format: AC-3
Format/Info: Audio Coding 3
Channel(s): 6 channels
Sampling rate: 48.0 KHz
Language: Russian

Audio #4
Format: AC-3
Format/Info: Audio Coding 3
Channel(s): 6 channels
Sampling rate: 48.0 KHz
Language: English
Language, more info: Director's comments

Audio #5
ID: 132 (0x84)
Format: AC-3
Format/Info: Audio Coding 3
Channel(s): 6 channels
Sampling rate: 48.0 KHz
Language: English

Audio #6
ID: 133 (0x85)
Format: AC-3
Format/Info: Audio Coding 3
Channel(s): 2 channels
Sampling rate: 48.0 KHz
Language: English
Language, more info: Director's comments

Text #1
ID: 32 (0x20)
Format: RLE
Format/Info: Run-length encoding
Bit depth: 2 bits
Language: English

Text #2
ID: 33 (0x21)
Format: RLE
Format/Info: Run-length encoding
Bit depth: 2 bits
Language: Polish

Text #3
ID: 34 (0x22)
Format: RLE
Format/Info: Run-length encoding
Bit depth: 2 bits
Language: Russian

Text #4
ID: 35 (0x23)
Format: RLE
Format/Info: Run-length encoding
Bit depth: 2 bits
Language: Estonian

Text #5
ID: 36 (0x24)
Format: RLE
Format/Info: Run-length encoding
Bit depth: 2 bits
Language: Latvian

Text #6
ID: 37 (0x25)
Format: RLE
Format/Info: Run-length encoding
Bit depth: 2 bits
Language: Lithuanian

Text #7
ID: 38 (0x26)
Format: RLE
Format/Info: Run-length encoding
Bit depth: 2 bits
Language: Ukrainian

Menu
List (Audio): 4 / 5
List (Subtitles 4/3): 0 / 0 / 0 / 0 / 0 / 0 / 0
List (Subtitles Wide): 0 / 1 / 2 / 3 / 4 / 5 / 6
List (Subtitles Letterbox): 0 / 1 / 2 / 3 / 4 / 5 / 6
List (Subtitles Pan&Scan): 0 / 0 / 0 / 0 / 0 / 0 / 0

General
Complete name: D:\Shoot_Em_Up_[tfile.ru]\VIDEO_TS\VTS_03_0.IFO
Format: DVD Video
Format profile: Program
File size: 18.0 KiB

Video
ID: 224 (0xE0)
Format: MPEG Video
Format version: Version 2
Bit rate mode: Variable
Width: 720 pixels
Height: 576 pixels
Display aspect ratio: 16:9
Frame rate: 25.000 fps
Standard: PAL

Audio #1
Format: AC-3
Format/Info: Audio Coding 3
Channel(s): 6 channels
Sampling rate: 48.0 KHz
Language: English

Audio #2
Format: AC-3
Format/Info: Audio Coding 3
Channel(s): 2 channels
Sampling rate: 48.0 KHz
Language: Polish

Audio #3
Format: AC-3
Format/Info: Audio Coding 3
Channel(s): 6 channels
Sampling rate: 48.0 KHz
Language: Russian

Audio #4
Format: AC-3
Format/Info: Audio Coding 3
Channel(s): 6 channels
Sampling rate: 48.0 KHz
Language: English
Language, more info: Director's comments

Audio #5
ID: 132 (0x84)
Format: AC-3
Format/Info: Audio Coding 3
Channel(s): 6 channels
Sampling rate: 48.0 KHz
Language: English

Audio #6
ID: 133 (0x85)
Format: AC-3
Format/Info: Audio Coding 3
Channel(s): 2 channels
Sampling rate: 48.0 KHz
Language: English
Language, more info: Director's comments

Text #1
ID: 32 (0x20)
Format: RLE
Format/Info: Run-length encoding
Bit depth: 2 bits
Language: English

Text #2
ID: 33 (0x21)
Format: RLE
Format/Info: Run-length encoding
Bit depth: 2 bits
Language: Polish

Text #3
ID: 34 (0x22)
Format: RLE
Format/Info: Run-length encoding
Bit depth: 2 bits
Language: Russian

Text #4
ID: 35 (0x23)
Format: RLE
Format/Info: Run-length encoding
Bit depth: 2 bits
Language: Estonian

Text #5
ID: 36 (0x24)
Format: RLE
Format/Info: Run-length encoding
Bit depth: 2 bits
Language: Latvian

Text #6
ID: 37 (0x25)
Format: RLE
Format/Info: Run-length encoding
Bit depth: 2 bits
Language: Lithuanian

Text #7
ID: 38 (0x26)
Format: RLE
Format/Info: Run-length encoding
Bit depth: 2 bits
Language: Ukrainian

Menu
List (Audio): 4 / 5
List (Subtitles 4/3): 0 / 0 / 0 / 0 / 0 / 0 / 0
List (Subtitles Wide): 0 / 1 / 2 / 3 / 4 / 5 / 6
List (Subtitles Letterbox): 0 / 1 / 2 / 3 / 4 / 5 / 6
List (Subtitles Pan&Scan): 0 / 0 / 0 / 0 / 0 / 0 / 0

General
Complete name: D:\Shoot_Em_Up_[tfile.ru]\VIDEO_TS\VTS_03_0.VOB
Format: MPEG-PS
File size: 10.0 KiB
Duration: 40ms
Overall bit rate: 2 048 Kbps

Video
ID: 224 (0xE0)
Format: MPEG Video
Format version: Version 2
Format profile: Main@Main
Format settings, BVOP: No
Format settings, Matrix: Default
Format settings, GOP: N=1
Duration: 40ms
Bit rate mode: Variable
Bit rate: 9 800 Kbps
Width: 720 pixels
Height: 576 pixels
Display aspect ratio: 16:9
Frame rate: 25.000 fps
Standard: PAL
Color space: YUV
Chroma subsampling: 4:2:0
Bit depth: 8 bits
Scan type: Progressive
Scan order: Top Field First
Bits/(Pixel*Frame): 0.945
Stream size: 47.9 KiB

Menu

General
Complete name: D:\Shoot_Em_Up_[tfile.ru]\VIDEO_TS\VTS_03_1.VOB
Format: MPEG-PS
File size: 100 KiB
Duration: 40ms
Overall bit rate: 20.5 Mbps

Video
ID: 224 (0xE0)
Format: MPEG Video
Format version: Version 2
Format profile: Main@Main
Format settings, BVOP: No
Format settings, Matrix: Default
Format settings, GOP: N=1
Duration: 40ms
Bit rate mode: Constant
Bit rate: 8 000 Kbps
Width: 720 pixels
Height: 576 pixels
Display aspect ratio: 16:9
Frame rate: 25.000 fps
Standard: PAL
Color space: YUV
Chroma subsampling: 4:2:0
Bit depth: 8 bits
Scan type: Progressive
Scan order: Top Field First
Bits/(Pixel*Frame): 0.772
Stream size: 39.1 KiB (39%)

Menu

General
Complete name: D:\Shoot_Em_Up_[tfile.ru]\VIDEO_TS\VTS_04_0.BUP
Format: DVD Video
Format profile: Program
File size: 44.0 KiB

Video
ID: 224 (0xE0)
Format: MPEG Video
Format version: Version 2
Bit rate mode: Variable
Width: 720 pixels
Height: 576 pixels
Display aspect ratio: 16:9
Frame rate: 25.000 fps
Standard: PAL

Audio #1
Format: AC-3
Format/Info: Audio Coding 3
Channel(s): 2 channels
Sampling rate: 48.0 KHz
Language: English

Audio #2
Format: AC-3
Format/Info: Audio Coding 3
Channel(s): 6 channels
Sampling rate: 48.0 KHz
Language: Polish

Audio #3
Format: AC-3
Format/Info: Audio Coding 3
Channel(s): 6 channels
Sampling rate: 48.0 KHz
Language: Russian

Audio #4
Format: AC-3
Format/Info: Audio Coding 3
Channel(s): 6 channels
Sampling rate: 48.0 KHz
Language: English

Audio #5
ID: 132 (0x84)
Format: AC-3
Format/Info: Audio Coding 3
Channel(s): 2 channels
Sampling rate: 48.0 KHz
Language: English

Text #1
ID: 32 (0x20)
Format: RLE
Format/Info: Run-length encoding
Bit depth: 2 bits
Language: English

Text #2
ID: 33 (0x21)
Format: RLE
Format/Info: Run-length encoding
Bit depth: 2 bits
Language: Polish

Text #3
ID: 34 (0x22)
Format: RLE
Format/Info: Run-length encoding
Bit depth: 2 bits
Language: Russian

Text #4
ID: 35 (0x23)
Format: RLE
Format/Info: Run-length encoding
Bit depth: 2 bits
Language: Estonian

Text #5
ID: 36 (0x24)
Format: RLE
Format/Info: Run-length encoding
Bit depth: 2 bits
Language: Latvian

Text #6
ID: 37 (0x25)
Format: RLE
Format/Info: Run-length encoding
Bit depth: 2 bits
Language: Lithuanian

Text #7
ID: 38 (0x26)
Format: RLE
Format/Info: Run-length encoding
Bit depth: 2 bits
Language: Ukrainian

Menu
List (Audio): 4
List (Subtitles 4/3): 0 / 0 / 0 / 0 / 0 / 0 / 0
List (Subtitles Wide): 0 / 1 / 2 / 3 / 4 / 5 / 6
List (Subtitles Letterbox): 0 / 1 / 2 / 3 / 4 / 5 / 6
List (Subtitles Pan&Scan): 0 / 0 / 0 / 0 / 0 / 0 / 0

General
Complete name: D:\Shoot_Em_Up_[tfile.ru]\VIDEO_TS\VTS_04_0.IFO
Format: DVD Video
Format profile: Program
File size: 44.0 KiB

Video
ID: 224 (0xE0)
Format: MPEG Video
Format version: Version 2
Bit rate mode: Variable
Width: 720 pixels
Height: 576 pixels
Display aspect ratio: 16:9
Frame rate: 25.000 fps
Standard: PAL

Audio #1
Format: AC-3
Format/Info: Audio Coding 3
Channel(s): 2 channels
Sampling rate: 48.0 KHz
Language: English

Audio #2
Format: AC-3
Format/Info: Audio Coding 3
Channel(s): 6 channels
Sampling rate: 48.0 KHz
Language: Polish

Audio #3
Format: AC-3
Format/Info: Audio Coding 3
Channel(s): 6 channels
Sampling rate: 48.0 KHz
Language: Russian

Audio #4
Format: AC-3
Format/Info: Audio Coding 3
Channel(s): 6 channels
Sampling rate: 48.0 KHz
Language: English

Audio #5
ID: 132 (0x84)
Format: AC-3
Format/Info: Audio Coding 3
Channel(s): 2 channels
Sampling rate: 48.0 KHz
Language: English

Text #1
ID: 32 (0x20)
Format: RLE
Format/Info: Run-length encoding
Bit depth: 2 bits
Language: English

Text #2
ID: 33 (0x21)
Format: RLE
Format/Info: Run-length encoding
Bit depth: 2 bits
Language: Polish

Text #3
ID: 34 (0x22)
Format: RLE
Format/Info: Run-length encoding
Bit depth: 2 bits
Language: Russian

Text #4
ID: 35 (0x23)
Format: RLE
Format/Info: Run-length encoding
Bit depth: 2 bits
Language: Estonian

Text #5
ID: 36 (0x24)
Format: RLE
Format/Info: Run-length encoding
Bit depth: 2 bits
Language: Latvian

Text #6
ID: 37 (0x25)
Format: RLE
Format/Info: Run-length encoding
Bit depth: 2 bits
Language: Lithuanian

Text #7
ID: 38 (0x26)
Format: RLE
Format/Info: Run-length encoding
Bit depth: 2 bits
Language: Ukrainian

Menu
List (Audio): 4
List (Subtitles 4/3): 0 / 0 / 0 / 0 / 0 / 0 / 0
List (Subtitles Wide): 0 / 1 / 2 / 3 / 4 / 5 / 6
List (Subtitles Letterbox): 0 / 1 / 2 / 3 / 4 / 5 / 6
List (Subtitles Pan&Scan): 0 / 0 / 0 / 0 / 0 / 0 / 0

General
Complete name: D:\Shoot_Em_Up_[tfile.ru]\VIDEO_TS\VTS_04_0.VOB
Format: MPEG-PS
File size: 10.0 KiB
Duration: 40ms
Overall bit rate: 2 048 Kbps

Video
ID: 224 (0xE0)
Format: MPEG Video
Format version: Version 2
Format profile: Main@Main
Format settings, BVOP: No
Format settings, Matrix: Default
Format settings, GOP: N=1
Duration: 40ms
Bit rate mode: Variable
Bit rate: 9 800 Kbps
Width: 720 pixels
Height: 576 pixels
Display aspect ratio: 16:9
Frame rate: 25.000 fps
Standard: PAL
Color space: YUV
Chroma subsampling: 4:2:0
Bit depth: 8 bits
Scan type: Progressive
Scan order: Top Field First
Bits/(Pixel*Frame): 0.945
Stream size: 47.9 KiB

Menu

General
Complete name: D:\Shoot_Em_Up_[tfile.ru]\VIDEO_TS\VTS_04_1.VOB
Format: MPEG-PS
File size: 881 MiB

Video
ID: 224 (0xE0)
Format: MPEG Video
Format version: Version 2
Format profile: Main@Main
Format settings, BVOP: Yes
Format settings, Matrix: Default
Bit rate mode: Variable
Bit rate: 7 500 Kbps
Width: 720 pixels
Height: 576 pixels
Display aspect ratio: 16:9
Frame rate: 25.000 fps
Standard: PAL
Color space: YUV
Chroma subsampling: 4:2:0
Bit depth: 8 bits
Scan type: Interlaced
Scan order: Top Field First
Bits/(Pixel*Frame): 0.723

Audio
ID: 132 (0x84)
Format: AC-3
Format/Info: Audio Coding 3
Mode extension: CM (complete main)
Bit rate mode: Constant
Bit rate: 192 Kbps
Channel(s): 2 channels
Channel positions: Front: L R
Sampling rate: 48.0 KHz
Bit depth: 16 bits

Text
ID: 32 (0x20)
Format: RLE
Format/Info: Run-length encoding

Menu

Поделиться:




реклама партнёра


Вернуться к началу
 Профиль Отправить личное сообщение  
 
   Похожие торренты   Автор   Торрент   Размер 
В этой теме нет новых непрочитанных сообщений. Бюро убийств / The Assassination Bureau [боевик, триллер, комедия, криминал, приключения, 1969] DVD5, Mvo

salma3

0 | 3

4.36 ГБ

В этой теме нет новых непрочитанных сообщений. Хитмэн / Hitman [боевик, триллер, драма, криминал, 2007] DVD5, Dub+Sub

salma3

70 | 13

4.25 ГБ

В этой теме нет новых непрочитанных сообщений. Древние / The Originals [03х01-16 из 22] (Джозеф Морган, Дэниэл Гиллис, Чарльз Майкл Дэвис) [2015, Ужасы, фантастика, боевик, драма, вампиры, WEB-DLRip | LostFilm]

Dracon

94 | 288

5.65 ГБ

В этой теме нет новых непрочитанных сообщений. Древние / The Originals [03х01-05 из 22] (Джозеф Морган, Дэниэл Гиллис, Чарльз Майкл Дэвис) [2015, Ужасы, фантастика, боевик, драма, вампиры, WEB-DLRip | LostFilm]

Nickolas3435

358 | 887

2.33 ГБ

В этой теме нет новых непрочитанных сообщений. Без изъяна / Flawless (Майкл Рэдфорд) [2007, Триллер, драма, криминал, BDRip 720p] mvo+dvo

Nickolas3435

50 | 6

3.77 ГБ

В этой теме нет новых непрочитанных сообщений. Майкл Клейтон / Michael Clayton [Триллер, драма, криминал, детектив, 2007] BDRip 1080p, Mvo+Sub

salma3

75 | 38

7.79 ГБ

В этой теме нет новых непрочитанных сообщений. Мыслить как преступник / Criminal Minds [10x01-12 из 24] (Джефф Дэвис) [2014, Триллер, драма, криминал, детектив, WEB-DL 720p | Fox]

Nickolas3435

3 | 8

16.54 ГБ


Начать новую тему Ответить на тему  [ 1 сообщение ] 




Для Мосгорсуда, Роскомнадзора и рекламодателей:: mosgorsud-torrent[собачка]yandex.ru