Торрент файл
скачать торрент магнет ссылка Добавлен: 08 янв 2012, 23:35
Размер: 7.19 ГБ
Сидеров: 1
Личеров: 6
Автор

СообщениеДобавлено: 08 янв 2012, 23:35 

Не в сети
Супермодератор
Аватара пользователя
Дата регистрации:
11 апр 2010, 18:10
Спасибо: 5922 / 7
Сообщения: 56776
Царь Давид: Идеальный властитель / David


Перевод: Профессиональный (двухголосый)
Субтитры: Русские
Формат: 2XDVD5, DVD Video, MPEG2, AC3
Страна: Германия, США, Италия
Режиссер: Роберт Марковиц
Жанр: Драма, приключения
Продолжительность: 03:10:19
Год выпуска: 1997
В ролях: Натаниель Паркер, Джонатан Прайс, Леонард Нимой, Шерил Ли, Бен Дэниелс, Ричард Эшкрофт, Гидеон Тернер, Морис Роевз, Доминик Роуэн, Эдвард Холл, ...

Описание: Давид родился в семье пастуха, но воспитывался пророками Самуилом и Натаном. Восхождение Давида к вершинам власти было нелегким. Ему довелось сразиться со многими врагами — от богатыря-гиганта филистимлян Голиафа до израильского царя Саула. За время своего сорокалетнего правления Давид пережил немало битв, предательств и потерь.
Им двигали самые разные чувства — от страстной и запретной любви к Вирсавии до лютой ненависти к внешним и внутренним врагам. Он провел множество войн и пролил реки крови. Поэтому не ему было доверено Богом построить Храм Господень в Иерусалиме. Эта великая судьба выпала сыну Давида…


Рейтинг на КиноПоиск: 7.333 (17)
Рейтинг на IMDb: 6.7/10

ДИСК 1
Видео: 720X576 (PAL 4:3), 25.000fps, MPEG-2 Video, ~9 200Kbps
Аудио#1: Русский 48.0KHz, AC-3, 2 ch, ~192Kbps [Профессиональный (двухголосый)]
Аудио#2: Английский 48.0KHz, AC-3, 2 ch, ~192Kbps [Оригинал]

ДИСК 2
Видео: 720X576 (PAL 4:3), 25.000fps, MPEG-2 Video, ~8 000Kbps
Аудио#1: Русский 48.0KHz, AC-3, 2 ch, ~192Kbps [Профессиональный (двухголосый)]
Аудио#2: Английский 48.0KHz, AC-3, 2 ch, ~192Kbps [Оригинал]

Доп. информация:
Сценарий Ларри Гросс
Продюсер Люка Бернабей, Паоло Лучиди, Lorenzo Minoli, ...
Оператор Раффаэле Мертес
Композитор Карло Силиотто
Бюджет $15 000 000
Премьера мир 23 марта 1997
Релиз на DVD 27 апреля 2010, 25 марта 2009, «КАРМЕН ВИДЕО»


General
Complete name: C:\загрузка\David_[tfile.ru]\DVD One\VIDEO_TS\VTS_03_2.VOB
Format: MPEG-PS
File size: 1 024 MiB
Duration: 25mn 19s
Overall bit rate: 5 653 Kbps

Video
ID: 224 (0xE0)
Format: MPEG Video
Format version: Version 2
Format profile: Main@Main
Format settings, Matrix: Default
Duration: 25mn 19s
Bit rate mode: Variable
Bit rate: 5 045 Kbps
Nominal bit rate: 9 200 Kbps
Width: 720 pixels
Height: 576 pixels
Display aspect ratio: 4/3
Frame rate: 25.000 fps
Standard: PAL
Colorimetry: 4:2:0
Scan type: Interlaced
Scan order: Top Field First
Bits/(Pixel*Frame): 0.487
Stream size: 914 MiB (89%)

Audio #1
ID: 128 (0x80)
Format: AC-3
Format/Info: Audio Coding 3
Duration: 25mn 19s
Bit rate mode: Constant
Bit rate: 192 Kbps
Channel(s): 2 channels
Channel positions: L R
Sampling rate: 48.0 KHz
Video delay: -304ms
Stream size: 34.8 MiB (3%)

Audio #2
ID: 129 (0x81)
Format: AC-3
Format/Info: Audio Coding 3
Duration: 25mn 19s
Bit rate mode: Constant
Bit rate: 192 Kbps
Channel(s): 2 channels
Channel positions: L R
Sampling rate: 48.0 KHz
Video delay: -304ms
Stream size: 34.8 MiB (3%)

Text
ID: 32 (0x20)
Format: RLE
Format/Info: Run-length encoding
Duration: 25mn 17s
Video delay: -304ms

Menu
Format: DVD-Video




















General
Complete name: C:\загрузка\David_[tfile.ru]\DVD Two\VIDEO_TS\VTS_03_3.VOB
Format: MPEG-PS
File size: 1 024 MiB
Duration: 23mn 52s
Overall bit rate: 5 996 Kbps

Video
ID: 224 (0xE0)
Format: MPEG Video
Format version: Version 2
Format profile: Main@Main
Format settings, Matrix: Default
Duration: 23mn 52s
Bit rate mode: Variable
Bit rate: 5 374 Kbps
Nominal bit rate: 8 000 Kbps
Width: 720 pixels
Height: 576 pixels
Display aspect ratio: 4/3
Frame rate: 25.000 fps
Standard: PAL
Colorimetry: 4:2:0
Scan type: Interlaced
Scan order: Top Field First
Bits/(Pixel*Frame): 0.518
Stream size: 918 MiB (90%)

Audio #1
ID: 128 (0x80)
Format: AC-3
Format/Info: Audio Coding 3
Duration: 23mn 52s
Bit rate mode: Constant
Bit rate: 192 Kbps
Channel(s): 2 channels
Channel positions: L R
Sampling rate: 48.0 KHz
Video delay: -312ms
Stream size: 32.8 MiB (3%)

Audio #2
ID: 129 (0x81)
Format: AC-3
Format/Info: Audio Coding 3
Duration: 23mn 52s
Bit rate mode: Constant
Bit rate: 192 Kbps
Channel(s): 2 channels
Channel positions: L R
Sampling rate: 48.0 KHz
Video delay: -312ms
Stream size: 32.8 MiB (3%)

Text
ID: 32 (0x20)
Format: RLE
Format/Info: Run-length encoding

Menu
Format: DVD-Video




















Поделиться:




реклама партнёра


Вернуться к началу
 Профиль Отправить личное сообщение  
 
   Похожие торренты   Автор   Торрент   Размер 
В этой теме нет новых непрочитанных сообщений. Давид и Голиаф / David and Goliath [боевик, драма, приключения, 2016] HDRip, Mvo

salma3

2548 | 581

1.37 ГБ

В этой теме нет новых непрочитанных сообщений. Девчонка-сорванец / Garçon manqué (Давид Дельрие / David Delrieux) [2008г., драма, DVDRip] AVO

Alfredovich

0 | 2

1.37 ГБ

В этой теме нет новых непрочитанных сообщений. Давид и Лэйла: Беззаветная любовь / David & Layla [драма, мелодрама, комедия, 2005] HDTVRip, Mvo

salma3

50 | 11

1.37 ГБ

В этой теме нет новых непрочитанных сообщений. Лучше свинки нет скотинки / Tout est bon dans le cochon (Давид Дельрье / David Delrieux) [2011г., Франция, драма, комедия, мелодрама, DVB] sub

Alfredovich

7 | 2

2.38 ГБ

В этой теме нет новых непрочитанных сообщений. Мадрид, 1987 год / Madrid, 1987 (Давид Труэба / David Trueba) [2011г., драма, DVDRip] Sub

Alfredovich

58 | 5

1.45 ГБ

В этой теме нет новых непрочитанных сообщений. Лили Давид / Lili David (Кристоф Барро / Christophe Barraud) [2012г., Франция, комедия, SATRip] MVO

Alfredovich

8 | 2

1.37 ГБ

В этой теме нет новых непрочитанных сообщений. Задом наперед / Bakk (Давид Оскар Олафссон, Гуннар Ханссон / Davíd Óskar Ólafsson, Gunnar Hansson) [2015г., Исландия, комедия, DVDRip]vo

Alfredovich

388 | 21

1.46 ГБ


Начать новую тему Ответить на тему  [ 1 сообщение ] 




Для Мосгорсуда, Роскомнадзора и рекламодателей:: mosgorsud-torrent[собачка]yandex.ru