Торрент файл
скачать торрент магнет ссылка Добавлен: 08 янв 2012, 23:33
Размер: 4.36 ГБ
Сидеров: 1
Личеров: 6
Автор

СообщениеДобавлено: 08 янв 2012, 23:33 

Не в сети
Супермодератор
Аватара пользователя
Дата регистрации:
11 апр 2010, 18:10
Спасибо: 5886 / 7
Сообщения: 56778
Жених напрокат / The Wedding Date

Перевод: Профессиональный (двухголосый)
Субтитры: Испанские,английские
Формат: DVD5, DVD Video, MPEG2, AC3
Страна: США
Режиссер: Клер Килнер
Жанр: Комедия, мелодрама
Продолжительность: 01:30:25
Год выпуска: 2005
В ролях: Дебра Мессинг, Дермот Малруни, Эми Адамс, Джек Девенпорт, Сара Пэриш, Джереми Шеффилд, Питер Иган, Холланд Тейлор, Джолион Джеймс, С. Джерод Харрис, ...

Описание: Кэт стоит перед нелегкой дилеммой: необходимость съездить на свадьбу сестры в отчий дом омрачена тем, что там она непременно встретит экс- возлюбленного, расставание с которым было очень болезненным. Если уж ехать, то надо предъявить родственникам и бывшему жениха, симпатичного, умного и влюбленного. А его нет. И Кэт решает нанять парня из службы эскорт-услуг для посещения свадебной вечеринки.

Рейтинг на КиноПоиск: 7.404 (6 519)
Рейтинг на IMDb: 5.5/10
Рейтинг MPAA: PG-13

Видео: 720X480 (NTSC 16:9), 23.976fps, MPEG-2 Video, ~9 000Kbps
Аудио#1: Английский 48.0KHz, AC-3, 6 ch, ~384Kbps [Оригинал]
Аудио#2: Русский 48.0KHz, AC-3, 6 ch, ~384Kbps [Профессиональный (двухголосый)]
Аудио#3: Английский 48.0KHz, AC-3, 2 ch, ~192Kbps [Коментарий к фильму (Дебра Мессинг)]

Трейлер к фильму

Слоган «Love doesn't come cheap.»
Дополнительная информация: Релиз содержит субтитры с ненормативной лексикой


Можно сказать, что в жанре романтической комедии уже сформировался своеобразный поджанр лент, действие которых происходит накануне и во время свадеб. Конечно, этот американский фильм, который в оригинальном названии содержит слово «свадьба», не столь идеален и всепокоряющ, каковым просто обязан казаться «наёмный жених», к чьим услугам вынужденно обратилась брошенная своим возлюбленным Кэт Эллис. Ведь ей предстоит отправиться из Нью-Йорка в Англию, где должно состояться бракосочетание сводной младшей сестры Эми, выходящей замуж за Эда, чьим шафером выбрали Джефри, бывшего бой-френда Кэт. Вот она и позвала за довольно приличную сумму в размере шести тысяч долларов профессионального покорителя женских сердец, привлекательного Ника Мёрсера. Нетрудно догадаться, что не только другим женщинам на свадьбе, но и самой Кэт суждено попасть под воздействие его чар, хотя ей ещё надо окончательно разочароваться в прежнем любовнике.

Сценарий Элизабет Янг, Дэна Фокс
Продюсер Джессика Бендинджер, Маири Бетт, Пол Брукс, ...
Оператор Оливер Кертис
Композитор Блейк Нили
Бюджет $15 000 000
Сборы в США $31 726 995
Сборы в мире + $15 448 043 = $47 175 038
Зрители США5.1 млн.Великобритания845.9 тыс.Испания233 тыс.
Премьера (мир) 16 мая 2004
Премьера (РФ) 3 марта 2005, «Централ Партнершип»

General
Complete name: C:\загрузка\The_Wedding_Date_[tfile.ru]\VIDEO_TS\VTS_01_2.VOB
Format: MPEG-PS
File size: 1 024 MiB
Duration: 21mn 14s
Overall bit rate: 6 738 Kbps

Video
ID: 224 (0xE0)
Format: MPEG Video
Format version: Version 2
Format profile: Main@Main
Format settings, Matrix: Default
Duration: 21mn 14s
Bit rate mode: Variable
Bit rate: 5 511 Kbps
Nominal bit rate: 9 000 Kbps
Width: 720 pixels
Height: 480 pixels
Display aspect ratio: 16/9
Frame rate: 23.976 fps
Standard: NTSC
Colorimetry: 4:2:0
Scan type: Progressive
Scan order: 2:3 Pulldown
Bits/(Pixel*Frame): 0.665
Stream size: 837 MiB (82%)

Audio #1
ID: 128 (0x80)
Format: AC-3
Format/Info: Audio Coding 3
Duration: 21mn 14s
Bit rate mode: Constant
Bit rate: 384 Kbps
Channel(s): 6 channels
Channel positions: Front: L C R, Surround: L R, LFE
Sampling rate: 48.0 KHz
Video delay: -462ms
Stream size: 58.4 MiB (6%)

Audio #2
ID: 129 (0x81)
Format: AC-3
Format/Info: Audio Coding 3
Duration: 21mn 14s
Bit rate mode: Constant
Bit rate: 384 Kbps
Channel(s): 6 channels
Channel positions: Front: L C R, Surround: L R, LFE
Sampling rate: 48.0 KHz
Video delay: -462ms
Stream size: 58.4 MiB (6%)

Audio #3
ID: 130 (0x82)
Format: AC-3
Format/Info: Audio Coding 3
Format profile: Dolby Digital
Duration: 21mn 14s
Bit rate mode: Constant
Bit rate: 192 Kbps
Channel(s): 2 channels
Channel positions: L R
Sampling rate: 48.0 KHz
Video delay: -462ms
Stream size: 29.2 MiB (3%)

Text #1
ID: 32 (0x20)
Format: RLE
Format/Info: Run-length encoding
Duration: 21mn 13s
Video delay: -462ms

Text #2
ID: 33 (0x21)
Format: RLE
Format/Info: Run-length encoding
Video delay: -462ms

Menu
Format: DVD-Video






















Поделиться:




реклама партнёра


Вернуться к началу
 Профиль Отправить личное сообщение  
 
   Похожие торренты   Автор   Торрент   Размер 
В этой теме нет новых непрочитанных сообщений. Шафер напрокат / The Wedding Ringer (Джереми Гарелик) [мелодрама, комедия, 2015] HDRip, avo

Dracon

13 | 3

1.42 ГБ

В этой теме нет новых непрочитанных сообщений. Шафер напрокат / The Wedding Ringer (Джереми Гарелик) [мелодрама, комедия, 2015] BDRip-AVC, Dub+Sub [Лицензия]

Dracon

345 | 12

1.46 ГБ

В этой теме нет новых непрочитанных сообщений. Шафер напрокат / The Wedding Ringer (Джереми Гарелик) [мелодрама, комедия, 2015] HDRip, Dub [iTunes]

Dracon

9 | 4

1.45 ГБ

В этой теме нет новых непрочитанных сообщений. Шафер напрокат / The Wedding Ringer (Джереми Гарелик) [мелодрама, комедия, 2015] BDRip 1080p, Dub [iTunes]

Dracon

129 | 7

9.4 ГБ

В этой теме нет новых непрочитанных сообщений. Шафер напрокат / The Wedding Ringer (Джереми Гарелик) [мелодрама, комедия, 2015] BDRip 720p, Dub+Sub [Лицензия]

Dracon

1 | 0

5.98 ГБ

В этой теме нет новых непрочитанных сообщений. Шафер напрокат / The Wedding Ringer (Джереми Гарелик) [мелодрама, комедия, 2015] BDRip 720p, Dub [iTunes]

Dracon

386 | 16

5.12 ГБ

В этой теме нет новых непрочитанных сообщений. Шафер напрокат / The Wedding Ringer (Джереми Гарелик) [мелодрама, комедия, 2015] BDRip 1080p, Dub+Sub [Лицензия]

Dracon

0 | 0

10.18 ГБ


Начать новую тему Ответить на тему  [ 1 сообщение ] 




Для Мосгорсуда, Роскомнадзора и рекламодателей:: mosgorsud-torrent[собачка]yandex.ru