Торрент файл
скачать торрент магнет ссылка Добавлен: 08 янв 2012, 23:30
Размер: 4.35 ГБ
Сидеров: 0
Личеров: 6
Автор

СообщениеДобавлено: 08 янв 2012, 23:30 

Не в сети
Супермодератор
Аватара пользователя
Дата регистрации:
11 апр 2010, 18:10
Спасибо: 5960 / 7
Сообщения: 56765
Дом у озера / The Lake House

Перевод: Профессиональный (двухголосый)
Субтитры: Английские, испанские, французские,
Формат: DVD5, DVD Video, MPEG2, AC3
Страна: США, Австралия
Режиссер: Алехандро Агрести
Жанр: Фэнтези, мелодрама, драма
Продолжительность: 01:38:25
Год выпуска: 2006

В ролях: Киану Ривз, Сандра Буллок, Кристофер Пламмер, Эбон Мосс-Бакрак, Виллеке ван Аммельрой, Дилан Уолш, Шохре Агдашлу, Линн Коллинз, Майк Бакарелла, Кевин Бреннан ...

Описание: Зима 2006 года. Ощутив необходимость изменить свою жизнь, доктор Кейт Форестер покидает свой необычный дом у озера в пригороде Иллинойса и устраивается на работу в чикагскую больницу. Единственное, о чем жалеет Кейт, так это о своем красивом доме с огромными окнами, который дарил ей душевное спокойствие. По дороге в город Кейт оставляет в почтовом ящике письмо, которое должен получить новый обитатель дома.
Когда же в него вселяется талантливый, но разочаровавшийся в жизни архитектор Алекс Уайлер, он видит этот дом совсем не таким, каким описала его в своем письме Кейт. Для Алекса это жилище имеет особое значение, поскольку оно было построено его отцом, знаменитым архитектором, который ради карьеры оставил свою семью. В итоге Алекс решает придать дому его первоначальный вид. Однажды странный случай заставляет Алекса написать ответное письмо Кейт; в процессе их переписки выясняется, что он живет в 2004 году, а она — в 2006-м. И лишь загадочный почтовый ящик служит неким соединяющим их мостиком.
В письмах они делятся друг с другом самым сокровенным, и постепенно между ними возникает заочный любовный роман. Испытывая неодолимое желание встретиться, Кейт и Алекс идут на все, чтобы добиться невозможного, рискуя при этом навсегда потерять друг друга…


Рейтинг на КиноПоиск: 7.957 (15 165)
Рейтинг на IMDb: 6.8/10
Рейтинг MPAA: PG

Видео: 720X480 (NTSC 16:9), 23.976fps, MPEG-2 Video, ~8 100Kbps
Аудио#1: Английский 48.0KHz, AC-3, 6 ch, ~448Kbps [Оригинал]
Аудио#2: Русский 48.0KHz, AC-3, 6 ch, ~448Kbps [Профессиональный (двухголосый)]
Аудио#3: Русский 48.0KHz, DTS, 6 ch, ~755Kbps [Профессиональный (двухголосый)]


Международный трейлер
Слоган «Можно ли полюбить с первого слова?»

* Первоначально на роль главного героя планировался Джон Кьюсак.
* Рабочим названием фильма долгое время оставалось «Il Mare». В фильме - это итальянское слово, означающее «море»; используется для названия ресторана, где Алекс назначает встречу Кэйт через два года. Кроме того - это название корейского фильма-оригинала.
* Героиня Буллок дважды смотрит один и тот же фильм - «Дурная слава» Альфреда Хичкока с Ингрид Бергман и Кэри Грантом.
* В момент случайной встречи героев в 2004 году, Алекс и Кэйт танцуют под песню Пола Маккартни This Never Happened Before, что по сути является анахронизмом: песня была записана Маккартни только в 2005 году.
* Фильм вошел в историю как первая картина, вышедшая одновременно в трех цифровых форматах: DVD, HD-DVD и BluRay.

Сценарий Дэвид Обёрн, Юн-Йонг Ким, Джи-На Ео
Продюсер Брюс Берман, Даг Дэвисон, Дэна Голдберг, ...
Оператор Алар Кивило
Композитор Рейчел Портмен, Пауль Михаэль ван Брюгге
Бюджет $40 000 000
Сборы в США $52 330 111
Сборы в мире + $62 500 000 = $114 830 111
Сборы в России $1 526 344
DVD в США $36 472 918
Зрители США7.99 млн.Германия852.3 тыс.Бразилия816.4 тыс.
Премьера (мир) 16 июня 2006
Премьера (РФ) 10 августа 2006, «Каро-Премьер»
Релиз на DVD 10 февраля 2009, «Юниверсал Пикчерс Рус»

General
Complete name: C:\загрузка\The_Lake_House_[tfile.ru]\VIDEO_TS\VTS_01_2.VOB
Format: MPEG-PS
File size: 1 024 MiB
Duration: 22mn 43s
Overall bit rate: 6 299 Kbps

Video
ID: 224 (0xE0)
Format: MPEG Video
Format version: Version 2
Format profile: Main@Main
Format settings, Matrix: Default
Duration: 22mn 43s
Bit rate mode: Variable
Bit rate: 4 398 Kbps
Nominal bit rate: 8 100 Kbps
Width: 720 pixels
Height: 480 pixels
Display aspect ratio: 16/9
Frame rate: 23.976 fps
Standard: NTSC
Colorimetry: 4:2:0
Scan type: Progressive
Scan order: 2:3 Pulldown
Bits/(Pixel*Frame): 0.531
Stream size: 715 MiB (70%)

Audio #1
ID: 128 (0x80)
Format: AC-3
Format/Info: Audio Coding 3
Duration: 22mn 43s
Bit rate mode: Constant
Bit rate: 448 Kbps
Channel(s): 6 channels
Channel positions: Front: L C R, Surround: L R, LFE
Sampling rate: 48.0 KHz
Video delay: -297ms
Stream size: 72.8 MiB (7%)

Audio #2
ID: 129 (0x81)
Format: AC-3
Format/Info: Audio Coding 3
Duration: 22mn 43s
Bit rate mode: Constant
Bit rate: 448 Kbps
Channel(s): 6 channels
Channel positions: Front: L C R, Surround: L R, LFE
Sampling rate: 48.0 KHz
Video delay: -297ms
Stream size: 72.8 MiB (7%)

Audio #3
ID: 138 (0x8A)
Format: DTS
Format/Info: Digital Theater Systems
Duration: 22mn 43s
Bit rate mode: Constant
Bit rate: 755 Kbps
Channel(s): 6 channels
Channel positions: Front: L C R, Surround: L R, LFE
Sampling rate: 48.0 KHz
Resolution: 24 bits
Video delay: -297ms
Stream size: 123 MiB (12%)

Text #1
ID: 32 (0x20)
Format: RLE
Format/Info: Run-length encoding
Duration: 22mn 41s
Video delay: -297ms

Text #2
ID: 33 (0x21)
Format: RLE
Format/Info: Run-length encoding
Duration: 22mn 41s
Video delay: -297ms

Text #3
ID: 34 (0x22)
Format: RLE
Format/Info: Run-length encoding
Duration: 22mn 41s
Video delay: -297ms

Text #4
ID: 35 (0x23)
Format: RLE
Format/Info: Run-length encoding
Duration: 22mn 41s
Video delay: -297ms

Text #5
ID: 36 (0x24)
Format: RLE
Format/Info: Run-length encoding
Duration: 22mn 41s
Video delay: -297ms

Text #6
ID: 37 (0x25)
Format: RLE
Format/Info: Run-length encoding
Duration: 22mn 41s
Video delay: -297ms

Menu
Format: DVD-Video






















Поделиться:




реклама партнёра


Вернуться к началу
 Профиль Отправить личное сообщение  
 
   Похожие торренты   Автор   Торрент   Размер 
В этой теме нет новых непрочитанных сообщений. Дом у озера / House by the Lake [ужасы, триллер, 2017] WEBDLRip, Dvo

salma3

143 | 11

1.37 ГБ

В этой теме нет новых непрочитанных сообщений. Вершина озера / Top of the Lake [S02] [драма, 2017] WEB-DLRip, Mvo [Amedia]

salma3

56 | 29

4.46 ГБ

В этой теме нет новых непрочитанных сообщений. Вершина озера / Top of the Lake [S02] [драма, 2017] WEBRip 1080p, Mvo [Amedia]

salma3

34 | 30

12.67 ГБ

В этой теме нет новых непрочитанных сообщений. Бёрдмэн / Birdman (Алехандро Гонсалес Иньярриту) [Драма, Комедия, 2014] DVD5, Dub+Sub

Dracon

31 | 6

4.37 ГБ

В этой теме нет новых непрочитанных сообщений. Озеро желаний / Harvest Lake [ужасы, фэнтези, драма, 2016] WEB-DLRip, Mvo

salma3

659 | 164

1.37 ГБ

В этой теме нет новых непрочитанных сообщений. Танцовщица / Whirlygirl [драма, мелодрама, 2006] DVD5, Dvo+Sub

salma3

25 | 4

4.33 ГБ

В этой теме нет новых непрочитанных сообщений. Кровь и шоколад / Blood and Chocolate [фэнтези, драма, мелодрама, 2006] BDRip 720p, Dub

salma3

17 | 12

4.64 ГБ


Начать новую тему Ответить на тему  [ 1 сообщение ] 




Для Мосгорсуда, Роскомнадзора и рекламодателей:: mosgorsud-torrent[собачка]yandex.ru