Торрент файл
скачать торрент магнет ссылка Добавлен: 08 янв 2012, 23:24
Размер: 3.91 ГБ
Сидеров: 2
Личеров: 5
Автор

СообщениеДобавлено: 08 янв 2012, 23:24 

Не в сети
Супермодератор
Аватара пользователя
Дата регистрации:
11 апр 2010, 18:10
Спасибо: 5802 / 7
Сообщения: 56779
Откуда берутся дети?

Перевод: Не требуется
Субтитры: Отсутствуют
Формат: DVD5, DVD Video, MPEG2, AC3
Страна: Россия
Режиссер: Марина Цурцумия
Жанр: Комедия
Продолжительность: 01:19:48
Год выпуска: 2008

В ролях: Анна Казючиц, Петр Красилов, Лариса Удовиченко, Норберт Кухинке, Елизавета Лотова, Игорь Афанасьев, Григорий Багров, Ксения Черноскутова, Артур Офенгейм, Константин Соловьев

Описание: Павел — молодой и успешный. Он считает, что у него есть все: прекрасная работа, сексапильная подружка, крутая тачка и любящая мама. Но мама считает, что у Павла нет ничего: ни жены, ни детей — а значит, нет СЧАСТЬЯ! Материнская любовь способна творить чудеса, но откуда же берутся дети? Вы не поверите, но все, о чем вы подумали — НЕПРАВИЛЬНО!!!

Рейтинг на КиноПоиск: 6.841 (522)
Рейтинг на IMDb: 3.1/10

Видео: 720X576 (PAL 16:9), 25.000fps, MPEG-2 Video, ~8 500Kbps
Аудио: Русский 48.0KHz, AC-3, 2 ch, ~192Kbps [Оригинал]


Трейлер к фильму
Слоган «Все, о чем вы подумали - неправильно!»

Сценарий: Эдуард Резник, Валерий Зеленский
Продюсер: Александр Иошпа
Композитор: Александр Соколов
Премьера (РФ): 1 апреля 2008
Релиз на DVD: 18 декабря 2008, «СОЮЗ-ВИДЕО»

General
Complete name: C:\загрузка\Otkuda_berutsya_deti_[tfile.ru]\VIDEO_TS\VTS_04_2.VOB
Format: MPEG-PS
File size: 1 024 MiB
Duration: 23mn 47s
Overall bit rate: 6 019 Kbps

Video
ID: 224 (0xE0)
Format: MPEG Video
Format version: Version 2
Format profile: Main@Main
Format settings, Matrix: Default
Duration: 23mn 46s
Bit rate mode: Variable
Bit rate: 5 588 Kbps
Nominal bit rate: 8 500 Kbps
Width: 720 pixels
Height: 576 pixels
Display aspect ratio: 16/9
Frame rate: 25.000 fps
Standard: PAL
Colorimetry: 4:2:0
Scan type: Interlaced
Scan order: Top Field First
Bits/(Pixel*Frame): 0.539
Stream size: 951 MiB (93%)

Audio
ID: 128 (0x80)
Format: AC-3
Format/Info: Audio Coding 3
Duration: 23mn 47s
Bit rate mode: Constant
Bit rate: 192 Kbps
Channel(s): 2 channels
Channel positions: L R
Sampling rate: 48.0 KHz
Video delay: -600ms
Stream size: 32.7 MiB (3%)

Menu
Format: DVD-Video




















Поделиться:




реклама партнёра


Вернуться к началу
 Профиль Отправить личное сообщение  
 
   Похожие торренты   Автор   Торрент   Размер 
В этой теме нет новых непрочитанных сообщений. Мужчины, женщины и дети / Men, Women & Children (Джейсон Рейтмен) [драма, комедия, 2014] DVD5, Dub+Sub [Лицензия]

Dracon

59 | 21

4.36 ГБ

В этой теме нет новых непрочитанных сообщений. Дети 90-х (Максим Юсупов, Михаил Носко) [Криминал, драма, 2015] DVD5

Dracon

120 | 2

4.2 ГБ

В этой теме нет новых непрочитанных сообщений. Бабай (Марина Медведь) [2013, Марина Медведь, WEB-DLRip-AVC]

Nickolas3435

529 | 34

744.82 МБ

В этой теме нет новых непрочитанных сообщений. Дети - Дети (СД) [1992, Rock, MP3]

PriZraK

0 | 1

120.49 МБ

В этой теме нет новых непрочитанных сообщений. Марина Цветаева - Стихотворения [2008, Аудиокнига, русская литература, классическая литература, MP3]

Nickolas3435

31 | 6

149.82 МБ

В этой теме нет новых непрочитанных сообщений. Взрослые дети развода / A.C.O.D. [комедия, 2013] HDRip, Dub [iTunes]

Dracon

483 | 14

1.37 ГБ

В этой теме нет новых непрочитанных сообщений. Дети природы / Les enfants du marais [Драма, комедия, 1999] DVDRip, Dvo+Avo

salma3

45 | 5

1.45 ГБ


Начать новую тему Ответить на тему  [ 1 сообщение ] 




Для Мосгорсуда, Роскомнадзора и рекламодателей:: mosgorsud-torrent[собачка]yandex.ru