Торрент файл
скачать торрент магнет ссылка Добавлен: 08 янв 2012, 23:22
Размер: 4.27 ГБ
Сидеров: 0
Личеров: 4
Автор

СообщениеДобавлено: 08 янв 2012, 23:22 

Не в сети
Супермодератор
Аватара пользователя
Дата регистрации:
11 апр 2010, 18:10
Спасибо: 5960 / 7
Сообщения: 56765
Само совершенство / The Perfect Assistant


Перевод: Профессиональный (многоголосый, закадровый)
Субтитры: Русские,украинские
Формат: DVD5, DVD Video, MPEG2, AC3
Страна: США
Режиссер: Дуглас Джексон
Жанр: Триллер, криминал, детектив
Продолжительность: 01:31:28
Год выпуска: 2008

В ролях: Джози Дэвис, Крис Поттер, Рэйчел Хантер, Вероник-Натали Саланкевич, Джейсон Харпер, Дебора Поллитт, Софи Гендрон, Саманта Бэнтон, Йен М. Уотсон, Пол Хопкинс

Описание: Рейчел Парсонс идеальный помощник, само совершенство. И она по уши влюблена в своего босса. Самое заветное желание Рейчел — это стать его женой и завести детей. Но есть одно небольшое препятствие — у него уже есть семья…

Рейтинг на КиноПоиск: 4.500 (27)
Рейтинг на IMDb: 4.2/10

Видео: 720X576 (PAL 16:9), 25.000fps, MPEG-2 Video, ~8 200Kbps
Аудио#1: Русский 48.0KHz, AC-3, 6 ch, ~384Kbps [Профессиональный (многоголосый,закадровый)]
Аудио#2: Английский 48.0KHz, AC-3, 6 ch, ~384Kbps [Оригинал]



Трейлер к фильму

General
Complete name: C:\загрузка\The_Perfect_Assistant_[tfile.ru]\VIDEO_TS\VTS_05_2.VOB
Format: MPEG-PS
File size: 1 024 MiB
Duration: 23mn 12s
Overall bit rate: 6 167 Kbps

Video
ID: 224 (0xE0)
Format: MPEG Video
Format version: Version 2
Format profile: Main@Main
Format settings, Matrix: Default
Duration: 23mn 12s
Bit rate mode: Variable
Bit rate: 5 155 Kbps
Nominal bit rate: 8 200 Kbps
Width: 720 pixels
Height: 576 pixels
Display aspect ratio: 16/9
Frame rate: 25.000 fps
Standard: PAL
Colorimetry: 4:2:0
Scan type: Interlaced
Scan order: Top Field First
Bits/(Pixel*Frame): 0.497
Stream size: 856 MiB (84%)

Audio #1
ID: 128 (0x80)
Format: AC-3
Format/Info: Audio Coding 3
Duration: 23mn 12s
Bit rate mode: Constant
Bit rate: 384 Kbps
Channel(s): 6 channels
Channel positions: Front: L C R, Surround: L R, LFE
Sampling rate: 48.0 KHz
Video delay: -464ms
Stream size: 63.7 MiB (6%)

Audio #2
ID: 129 (0x81)
Format: AC-3
Format/Info: Audio Coding 3
Duration: 23mn 12s
Bit rate mode: Constant
Bit rate: 384 Kbps
Channel(s): 6 channels
Channel positions: Front: L C R, Surround: L R, LFE
Sampling rate: 48.0 KHz
Video delay: -464ms
Stream size: 63.7 MiB (6%)

Menu
Format: DVD-Video

Режиссер: Дуглас Джексон
Сценарий: Кристин Конрадт
Продюсер: Том Берри, Нил Брегман, Пьер Дэвид
Композитор: Ричард Бауэрс
Премьера (мир): 2 января 2008
Релиз на DVD: 21 сентября 2010, «West Video»

























[/shots]
Поделиться:




реклама партнёра


Вернуться к началу
 Профиль Отправить личное сообщение  
 
   Похожие торренты   Автор   Торрент   Размер 
В этой теме нет новых непрочитанных сообщений. Мистер Совершенство / Mr Perfect [боевик, драма, мелодрама, 2011] HDRip, Mvo

salma3

46 | 19

2.03 ГБ

В этой теме нет новых непрочитанных сообщений. Шерлок: Безобразная невеста / Sherlock: The Abominable Bride (Дуглас МакКиннон) [триллер, драма, криминал, детектив, 2015] WEBRip, Dub+Sub [Первый канал]

Dracon

2912 | 38

1.1 ГБ

В этой теме нет новых непрочитанных сообщений. Шерлок: Безобразная невеста / Sherlock: The Abominable Bride (Дуглас МакКиннон) [триллер, драма, криминал, детектив, 2015] WEBRip 720p, Dub+Sub [Первый канал]

Dracon

6184 | 252

2.48 ГБ

В этой теме нет новых непрочитанных сообщений. Шерлок: Безобразная невеста / Sherlock: The Abominable Bride (Дуглас МакКиннон) [триллер, драма, криминал, детектив, 2015] WEBRip 1080p, Dub+Sub [Первый канал]

Dracon

8420 | 147

3.48 ГБ

В этой теме нет новых непрочитанных сообщений. Шерлок : Безобразная невеста / Sherlock: The Abominable Bride (Дуглас МакКиннон) [триллер, драма, криминал, детектив, 2015] HDTV 1080p, Dub+Sub [Первый канал]

Dracon

2654 | 43

5.22 ГБ

В этой теме нет новых непрочитанных сообщений. Идеальный незнакомец / Perfect stranger [триллер, драма, криминал, детектив, 2007] BDRip 1080p, Dub+Avo+Sub

salma3

47 | 9

11.03 ГБ

В этой теме нет новых непрочитанных сообщений. Шерлок: Безобразная невеста / Sherlock: The Abominable Bride (Дуглас МакКиннон) [2015, Детектив, криминал, мистика, экранизация , HDTVRip 1080p ] [DD5.1] [Dub Rus , Eng]+[Sub Rus , Eng]

Враг Нароода

15 | 4

6.44 ГБ


Начать новую тему Ответить на тему  [ 1 сообщение ] 




Для Мосгорсуда, Роскомнадзора и рекламодателей:: mosgorsud-torrent[собачка]yandex.ru