Торрент файл
скачать торрент магнет ссылка Добавлен: 08 янв 2012, 23:21
Размер: 4.37 ГБ
Сидеров: 0
Личеров: 11
Автор

СообщениеДобавлено: 08 янв 2012, 23:21 

Не в сети
Супермодератор
Аватара пользователя
Дата регистрации:
11 апр 2010, 18:10
Спасибо: 5799 / 7
Сообщения: 56779
Сильная слабая женщина

Перевод: Не требуется
Субтитры: Отсутствуют
Формат: DVD5, DVD Video, MPEG2, AC3
Страна: Россия
Режиссер: Михаил Туманишвили
Жанр: Мелодрама
Продолжительность: 01:28:37
Год выпуска: 2010

В ролях: Екатерина Климова, Карина Андоленко, Алексей Макаров, Петр Красилов, Валерий Кащеев, Ирина Нарбекова

Описание: Лена влюблена в актера местного драмтеатра Николая Черкасова, она давно мечтает познакомиться со своим кумиром. Однако Николаю больше нравится ее сестра Маша, актер очень быстро предлагает ей выйти за него замуж.
Лена очень тяжело переживает известие о свадьбе Маши и Николая. Проходит время. Муж Маши постепенно меняется в худшую сторону, становится равнодушным, наглым, а самое ужасное — постоянно изменяет жене с поклонницами. Маша, не вытерпев, уходит от неверного мужа и вскоре знакомится с Артемом.


Рейтинг на КиноПоиск: 5.277 (122)

Видео: 720X576 (PAL 4:3), 25.000fps, MPEG-2 Video, ~9 000Kbps
Аудио: Русский 48.0KHz, AC-3, 2 ch, ~192Kbps [Оригинал]




General
Complete name: C:\загрузка\Silnaya_slabaya_zhenschina_[tfile.ru]\VIDEO_TS\VTS_01_2.VOB
Format: MPEG-PS
File size: 1 024 MiB
Duration: 21mn 49s
Overall bit rate: 6 560 Kbps

Video
ID: 224 (0xE0)
Format: MPEG Video
Format version: Version 2
Format profile: Main@Main
Format settings, Matrix: Default
Duration: 21mn 49s
Bit rate mode: Variable
Bit rate: 6 107 Kbps
Nominal bit rate: 9 000 Kbps
Width: 720 pixels
Height: 576 pixels
Display aspect ratio: 4/3
Frame rate: 25.000 fps
Standard: PAL
Colorimetry: 4:2:0
Scan type: Interlaced
Scan order: Top Field First
Bits/(Pixel*Frame): 0.589
Stream size: 953 MiB (93%)

Audio
ID: 128 (0x80)
Format: AC-3
Format/Info: Audio Coding 3
Duration: 21mn 49s
Bit rate mode: Constant
Bit rate: 192 Kbps
Channel(s): 2 channels
Channel positions: L R
Sampling rate: 48.0 KHz
Video delay: -368ms
Stream size: 30.0 MiB (3%)

Menu
Format: DVD-Video

Сценарий: Наталья Марфина, Денис Петушков
Продюсер: Денис Петушков, Илья Неретин
Оператор: Леонид Казаков
Композитор: Илья Шипилов
Премьера (РФ): 16 мая 2010
Релиз на DVD: 26 августа 2010, «Флагман-Трейд»

















Поделиться:




реклама партнёра


Вернуться к началу
 Профиль Отправить личное сообщение  
 
   Похожие торренты   Автор   Торрент   Размер 
В этой теме нет новых непрочитанных сообщений. Слабая женщина [01-02 из 02] [Мелодрама, 2014] HDTV 1080i

Dracon

15 | 3

10.87 ГБ

В этой теме нет новых непрочитанных сообщений. Слабая женщина [1-4 серии из 4] [мелодрама, 2014] SATRip

Dracon

121 | 13

2.5 ГБ

В этой теме нет новых непрочитанных сообщений. Ветреная женщина [01-12 из 12] [Мелодрама, 2014] SatRip

Dracon

431 | 49

5.89 ГБ

В этой теме нет новых непрочитанных сообщений. Женщина в черном 2: Ангел смерти / The Woman in Black 2: Angel of Death (Том Харпер) [ужасы, триллер, драма, 2014] DVD5, Dub [Лицензия]

Dracon

71 | 14

3.94 ГБ

В этой теме нет новых непрочитанных сообщений. Женщина в беде [1-4 серии из 4] [Криминальная мелодрама, 2014] SATRip

Dracon

7 | 6

2.26 ГБ

В этой теме нет новых непрочитанных сообщений. Другая женщина [01-04 из 04] (Александр Басаев) [2014, Мелодрама, SATRip]

Nickolas3435

362 | 23

2.38 ГБ

В этой теме нет новых непрочитанных сообщений. Ветреная женщина [01-10 из 12] (Ольга Перуновская) [Мелодрама, 2014] HDTVRip

Dracon

5 | 0

6.05 ГБ


Начать новую тему Ответить на тему  [ 1 сообщение ] 




Для Мосгорсуда, Роскомнадзора и рекламодателей:: mosgorsud-torrent[собачка]yandex.ru