Торрент файл
скачать торрент магнет ссылка Добавлен: 08 янв 2012, 23:19
Размер: 4.36 ГБ
Сидеров: 0
Личеров: 3
Автор

СообщениеДобавлено: 08 янв 2012, 23:19 

Не в сети
Супермодератор
Аватара пользователя
Дата регистрации:
11 апр 2010, 18:10
Спасибо: 5953 / 7
Сообщения: 56776
Привет-пока / Hello Goodbye

Перевод: Профессиональный (многоголосый закадровый)
Субтитры: Русские
Формат: DVD5, DVD Video, MPEG2, AC3
Страна: Франция, Италия, Израиль
Режиссер: Грэхэм Гюи
Жанр: Комедия
Продолжительность: 01:35:09
Год выпуска: 2008

В ролях: Фанни Ардан, Жерар Депардье, Жан Бенгиги, Лайор Ашкенази, Сэссон Габаи, Жилль Гастон-Дрейфус, Франсуаза Кристоф, Ману Пайе, Жан-Мишель Лами, Мюриель Комбо

Описание: В этом фильме муж и жена играют супругов-евреев, живущих в Париже. Когда же их сын вдруг решает жениться на католичке, они решают перебраться на свою историческую родину в Израиль. Однако там они сталкиваются со множеством бюрократических преград, в результате чего их взаимоотношения проходят испытание на прочность.

Рейтинг на КиноПоиск: 5.569 (95)
Рейтинг на IMDb: 5.5/10

Видео: 720X576 (PAL 16:9), 25.000fps, MPEG-2 Video, ~9 000Kbps
Аудио#1: Русский 48.0KHz, AC-3, 6 ch, ~ 448Kbps [Профессиональный (многоголосый закадровый)]
Аудио#2: Французский 48.0KHz, AC-3, 2 ch, ~ 192Kbps [Оригинал]



Трейлер к фильму
Слоган: «Чтобы жизнь медом не казалась!»

General
Complete name: C:\загрузка\Hello_Goodbye_[tfile.ru]\VIDEO_TS\VTS_06_2.VOB
Format: MPEG-PS
File size: 1 024 MiB
Duration: 21mn 5s
Overall bit rate: 6 788 Kbps

Video
ID: 224 (0xE0)
Format: MPEG Video
Format version: Version 2
Format profile: Main@Main
Format settings, Matrix: Default
Duration: 21mn 5s
Bit rate mode: Variable
Bit rate: 5 878 Kbps
Nominal bit rate: 9 000 Kbps
Width: 720 pixels
Height: 576 pixels
Display aspect ratio: 16/9
Frame rate: 25.000 fps
Standard: PAL
Colorimetry: 4:2:0
Scan type: Interlaced
Scan order: Top Field First
Bits/(Pixel*Frame): 0.567
Stream size: 886 MiB (87%)

Audio #1
ID: 128 (0x80)
Format: AC-3
Format/Info: Audio Coding 3
Duration: 21mn 5s
Bit rate mode: Constant
Bit rate: 448 Kbps
Channel(s): 6 channels
Channel positions: Front: L C R, Surround: L R, LFE
Sampling rate: 48.0 KHz
Video delay: -704ms
Stream size: 67.6 MiB (7%)

Audio #2
ID: 130 (0x82)
Format: AC-3
Format/Info: Audio Coding 3
Duration: 21mn 5s
Bit rate mode: Constant
Bit rate: 192 Kbps
Channel(s): 2 channels
Channel positions: L R
Sampling rate: 48.0 KHz
Video delay: -704ms
Stream size: 29.0 MiB (3%)

Text
ID: 32 (0x20)
Format: RLE
Format/Info: Run-length encoding
Duration: 21mn 5s
Video delay: -704ms

Menu
Format: DVD-Video

Сценарий: Майкл Лелуш
Продюсер: Фабио Конверси, Леон Эдери, Моше Эдери
Оператор: Жерар Стерин
Художник: Уильям Абельо
Бюджет: ?4 000 000
Зрители: Франция64.1 тыс.
Премьера (мир): 26 ноября 2008
Релиз на DVD: 7 октября 2010, 19 августа 2010, «СОЮЗ-ВИДЕО»



















Поделиться:




реклама партнёра


Вернуться к началу
 Профиль Отправить личное сообщение  
 
   Похожие торренты   Автор   Торрент   Размер 
В этой теме нет новых непрочитанных сообщений. Прощай, мир / Goodbye World [драма, комедия, 2013] HDRip, Avo

salma3

45 | 23

1.3 ГБ

В этой теме нет новых непрочитанных сообщений. Прощай, любовник / Goodbye Lover [Триллер, комедия, криминал, 1998] DVDRip, Dub

salma3

8 | 4

1.43 ГБ

В этой теме нет новых непрочитанных сообщений. Счастливая годовщина и разлука / Happy Anniversary and Goodbye [Комедия, 1974] DVDRip-AVC, Avo

salma3

16 | 8

746.94 МБ

В этой теме нет новых непрочитанных сообщений. До свиданья, дорогая / The Goodbye Girl [Драма, мелодрама, комедия, 1977] HDRip, Mvo

salma3

48 | 33

749.07 МБ

В этой теме нет новых непрочитанных сообщений. Семейка монстров / The Boxtrolls (Грэхэм Эннэйбл, Энтони Стакки) [2014, Комедия, мультфильм, приключения, семейный, BDRip 1080p | iTunes]

Nickolas3435

385 | 22

7.63 ГБ

В этой теме нет новых непрочитанных сообщений. Привет с побережья / Greetings from the Shore [драма, мелодрама, комедия, 2007] HDRip, Mvo

salma3

32 | 13

1.45 ГБ

В этой теме нет новых непрочитанных сообщений. До свиданья, дорогая / The Goodbye Girl [драма, мелодрама, комедия, 1977] BDRip 720p, Mvo

salma3

30 | 5

3.97 ГБ


Начать новую тему Ответить на тему  [ 1 сообщение ] 




Для Мосгорсуда, Роскомнадзора и рекламодателей:: mosgorsud-torrent[собачка]yandex.ru