Торрент файл
скачать торрент магнет ссылка Добавлен: 08 янв 2012, 23:17
Размер: 4.36 ГБ
Сидеров: 0
Личеров: 4
Автор

СообщениеДобавлено: 08 янв 2012, 23:17 

Не в сети
Супермодератор
Аватара пользователя
Дата регистрации:
11 апр 2010, 18:10
Спасибо: 5801 / 7
Сообщения: 56779
Я хочу конфетку / I Want Candy

Перевод: Профессиональный (многоголосый, закадровый)
Субтитры: Русские
Формат: DVD5, DVD Video, MPEG2, AC3
Страна: Великобритания
Режиссер: Стивен Серджик
Жанр: Комедия
Продолжительность: 01:26:50
Год выпуска: 2007

В ролях: Том Райли, Том Бурк, Кармен Электра, Эдди Марсан, Мишель Райан, Маккензи Крук, Фелисити Монтегю, Филип Джексон, Джимми Карр, Джон Стэндинг

Описание: Героям этой комедии, студентам кинофакультета, не терпится начать съёмки собственного полнометражного фильма. Роли в их творческом тандеме уже распределены: обаятельный и коммуникабельный Джо будет продюсером, а задумчивый и интровертный Бэгги — режиссёром.
Замысел дебютной работы друзей — душераздирающей, эстетской мелодрамы, уже давно готов, осталось лишь «продать» его студии. После неудачного визита в офис знаменитой лондонской кинокомпании Working Title, друзья решают заглянуть в маленькую продюсерскую фирму, директор которой не только соглашается их выслушать, но и предлагает контракт на картину. Однако, удивлению друзей не было предела, когда они осознают, что компания занимается съёмкой порнографических фильмов.
Впрочем, контракт есть контракт: теперь у друзей есть реальный шанс «запуститься» с собственной лентой. Правда в уговоре есть непреложное условие — в главной роли их фильма обязательно должна будет сняться самая знаменитая в мире порнозвезда, неоднократная обладательница престижнейшей награды «Золотой Фаллос», американка Кэнди Файвуэйс, объявившая недавно, что покидает кино «для взрослых». По счастливой случайности Кэнди оказывается в Лондоне, и застенчивому Бэгги чудом удается уговорить звезду на съёмки в картине. Наконец, съёмки «высоколобого» порнофильма начинаются…


Рейтинг на КиноПоиск: 5.652 (672)
Рейтинг на IMDb: 5.6/10
Рейтинг MPAA: R

Видео: 720X576 (PAL 16:9), 25.000fps, MPEG-2 Video, ~8 000 kbps avg
Аудио#1: Русский 48.0KHz, AC-3, 6 ch, ~ 448 kbps avg [Профессиональный (многоголосый, закадровый)]
Аудио#2: Английский 48.0KHz, AC-3, 6 ch, ~ 448 kbps avg [Оригинал]


Трейлер к фильму
Слоган: «This year's juiciest comedy»

General
Complete name: C:\загрузка\I_Want_Candy_[tfile.ru]\VIDEO_TS\VTS_03_3.VOB
Format: MPEG-PS
File size: 1 024 MiB
Duration: 22mn 52s
Overall bit rate: 6 260 Kbps

Video
ID: 224 (0xE0)
Format: MPEG Video
Format version: Version 2
Format profile: Main@Main
Format settings, Matrix: Default
Duration: 22mn 51s
Bit rate mode: Variable
Bit rate: 5 116 Kbps
Nominal bit rate: 8 000 Kbps
Width: 720 pixels
Height: 576 pixels
Display aspect ratio: 16/9
Frame rate: 25.000 fps
Standard: PAL
Colorimetry: 4:2:0
Scan type: Interlaced
Scan order: Top Field First
Bits/(Pixel*Frame): 0.493
Stream size: 836 MiB (82%)

Audio #1
ID: 128 (0x80)
Format: AC-3
Format/Info: Audio Coding 3
Duration: 22mn 52s
Bit rate mode: Constant
Bit rate: 448 Kbps
Channel(s): 6 channels
Channel positions: Front: L C R, Surround: L R, LFE
Sampling rate: 48.0 KHz
Video delay: -776ms
Stream size: 73.3 MiB (7%)

Audio #2
ID: 129 (0x81)
Format: AC-3
Format/Info: Audio Coding 3
Duration: 22mn 52s
Bit rate mode: Constant
Bit rate: 448 Kbps
Channel(s): 6 channels
Channel positions: Front: L C R, Surround: L R, LFE
Sampling rate: 48.0 KHz
Video delay: -776ms
Stream size: 73.3 MiB (7%)

Text
ID: 32 (0x20)
Format: RLE
Format/Info: Run-length encoding
Duration: 22mn 49s
Video delay: -776ms

Menu
Format: DVD-Video

Сценарий: Питер Хьюит, Фил Хьюз, Джэми Миноприо, ...
Продюсер: Крис Крисафис, Дэниэл Дж.Б. Тейлор, Дэниэл Тейлор, ...
Оператор: Крайтон Боун
Художник: Том Браун, Марк Суэйн
Монтаж: Алекс Маки
Бюджет: £1 000 000
Сборы в мире: $2 165 059
Зрители: Великобритания 192.8 тыс.,Турция38.8 тыс., Испания28.9 тыс.
Премьера (мир): 8 февраля 2007
Премьера (РФ): «Интерсинема-Арт»
Релиз на DVD: 3 сентября 2009, «CP-DIGITAL»





























Поделиться:




реклама партнёра


Вернуться к началу
 Профиль Отправить личное сообщение  
 
   Похожие торренты   Автор   Торрент   Размер 
В этой теме нет новых непрочитанных сообщений. Я хочу конфетку /  I Want Candy [Комедия, 2007] BDRip, Mvo

salma3

0 | 2

1.46 ГБ

В этой теме нет новых непрочитанных сообщений. Джессика Джонс / Jessica Jones [01х01-13 из 13] (С.Дж. Кларксон, Дэвид Петрарка, Стивен Серджик) [2015, фантастика, боевик, драма, криминал, WEBRip | NewStudio]

Dracon

146 | 205

8.76 ГБ

В этой теме нет новых непрочитанных сообщений. Джессика Джонс / Jessica Jones [01х01-09 из 13] (С.Дж. Кларксон, Дэвид Петрарка, Стивен Серджик) [2015, Фантастика, боевик, драма, криминал, WEBRip | Hamsterstudio]

Dracon

56 | 54

4.07 ГБ

В этой теме нет новых непрочитанных сообщений. Джессика Джонс / Jessica Jones [01х01-13 из 13] (С.Дж. Кларксон, Дэвид Петрарка, Стивен Серджик) [2015, фантастика, боевик, драма, криминал, WEBRip | BaibaKo]

Dracon

10 | 7

7.61 ГБ

В этой теме нет новых непрочитанных сообщений. Джессика Джонс / Marvel's Jessica Jones [01х01-11 из 13] (С.Дж. Кларксон, Дэвид Петрарка, Стивен Серджик) [2015, Фантастика, триллер, драма, WEBRip | IdeaFilm]

Dracon

1 | 5

4.88 ГБ

В этой теме нет новых непрочитанных сообщений. Джессика Джонс / Marvel's Jessica Jones [01х01-10 из 13] (С.Дж. Кларксон, Дэвид Петрарка, Стивен Серджик) [2015, Фантастика, триллер, драма, WEBRip 720p | IdeaFilm]

Dracon

135 | 144

15.58 ГБ

В этой теме нет новых непрочитанных сообщений. Джессика Джонс / Jessica Jones [01х01-06 из 13] (С.Дж. Кларксон, Дэвид Петрарка, Стивен Серджик) [2015, фантастика, боевик, драма, криминал, WEBRip 720p | SunshineStudio]

Dracon

7 | 11

3.29 ГБ


Начать новую тему Ответить на тему  [ 1 сообщение ] 




Для Мосгорсуда, Роскомнадзора и рекламодателей:: mosgorsud-torrent[собачка]yandex.ru