Торрент файл
скачать торрент магнет ссылка Добавлен: 08 янв 2012, 23:15
Размер: 4.24 ГБ
Сидеров: 0
Личеров: 6
Автор

СообщениеДобавлено: 08 янв 2012, 23:15 

Не в сети
Супермодератор
Аватара пользователя
Дата регистрации:
11 апр 2010, 18:10
Спасибо: 5801 / 7
Сообщения: 56779
Почти в законе / After School Special


Перевод: Профессиональный (многоголосый, закадровый)
Субтитры:Отсутствуют
Формат: DVD5, DVD Video, MPEG2, AC3
Страна: Германия, США
Режиссер: Дэвид М. Эванс
Жанр: Комедия
Продолжительность: 01:29:12
Год выпуска: 2003

В ролях: Эрик Фон Деттен, Тони Денмен, Дэниэл Фарбер, Сара-Джейн Поттс, Эми Смарт, Том Арнольд, Дей Янг, Райли Смит, Винс Вьелуф, Сэмм Ливайн

Описание: Три приятеля-старшеклассника Дикон, Мэтт и Фред в свободное от учебы время разжигали свою кровь и плоть просмотром порнофильмов. Кассеты они доставали очень просто: Фред подрабатывал в видеопрокате. Но однажды его застукали за подменой пленки и уволили.
Души и тела старшеклассников жаждали привычного развлечения, и друзьям пришла в голову оригинальная мысль: если нельзя взять порнушку в прокате, то надо снять ее самостоятельно. Видеокамера в доме Дикона имелась, за павильон вполне могло сойти подвальное помещение у него же.
Режиссером, оператором и звукооператором парни, по их мнению, были рождены. И троица отправилась на поиски актрис. Потому что актерами они, разумеется, видели себя…


Рейтинг на КиноПоиск: 5.576 (21
Рейтинг на IMDb: 4.8/10
Рейтинг MPAA: R

Видео: 720X576 (PAL 16:9), 25.000 fps, MPEG 2 Video, ~8 000 Kbps
Аудио#1: Русский : 48.0KHz, AC-3, 6 ch, ~448 Kbps [Профессиональный (многоголосый, закадровый)]
Аудио#2: Английский : 48.0KHz, AC-3, 6 ch, ~448 Kbps [Оригинал]



Трейлер к фильму
Слоган:«They couldn't rent it, so they made it themselves.»

General
Complete name: C:\загрузка\After_School_Special_[tfile.ru]\VIDEO_TS\VTS_01_3.VOB
Format: MPEG-PS
File size: 1 024 MiB
Duration: 23mn 4s
Overall bit rate: 6 203 Kbps

Video
ID: 224 (0xE0)
Format: MPEG Video
Format version: Version 2
Format profile: Main@Main
Format settings, Matrix: Default
Duration: 23mn 4s
Bit rate mode: Variable
Bit rate: 5 060 Kbps
Nominal bit rate: 8 000 Kbps
Width: 720 pixels
Height: 576 pixels
Display aspect ratio: 16/9
Frame rate: 25.000 fps
Standard: PAL
Colorimetry: 4:2:0
Scan type: Interlaced
Scan order: Top Field First
Bits/(Pixel*Frame): 0.488
Stream size: 835 MiB (82%)

Audio #1
ID: 128 (0x80)
Format: AC-3
Format/Info: Audio Coding 3
Duration: 23mn 4s
Bit rate mode: Constant
Bit rate: 448 Kbps
Channel(s): 6 channels
Channel positions: Front: L C R, Surround: L R, LFE
Sampling rate: 48.0 KHz
Video delay: -304ms
Stream size: 74.0 MiB (7%)

Audio #2
ID: 129 (0x81)
Format: AC-3
Format/Info: Audio Coding 3
Duration: 23mn 4s
Bit rate mode: Constant
Bit rate: 448 Kbps
Channel(s): 6 channels
Channel positions: Front: L C R, Surround: L R, LFE
Sampling rate: 48.0 KHz
Video delay: -304ms
Stream size: 74.0 MiB (7%)

Menu
Format: DVD-Video

Сценарий: Дэвид Х. Штейнберг
Продюсер: Сабина Мюллер, Герхард Шмидт, Дэвид Х. Штейнберг
Оператор: Джон Б. Аронсон
Композитор: Эндрю Гросс
Художник: Брент Томас, Джори Вудман, Роксанна Мето
Монтаж: Гарри Керамидас
Сборы в США: $26 511
Зрители: Словакия14.5 тыс., Чехия8.7 тыс.
Премьера (мир): 15 мая 2003




















Поделиться:




реклама партнёра


Вернуться к началу
 Профиль Отправить личное сообщение  
 
   Похожие торренты   Автор   Торрент   Размер 
В этой теме нет новых непрочитанных сообщений. Старая закалка / Old School [комедия, 2003] BDRip 720p, Dub+Mvo+Dvo+Avo+Sub

salma3

151 | 35

5.76 ГБ

В этой теме нет новых непрочитанных сообщений. Письмо милосердия / The Grace Card (Дэвид Эванс / David Evans) [2010г., драма, DVDRip] MVO + DVO

Alfredovich

3 | 1

2.19 ГБ

В этой теме нет новых непрочитанных сообщений. After School Special / Занятия После Школы (Ablaze) (Jasmine Gold, Kira Foolish, Odette, Sabrina Sweet, Zafira) [2014 г., 18+ Teens,All sex,Facial, WEB-DL 404p]

friizze

24 | 10

1.51 ГБ

В этой теме нет новых непрочитанных сообщений. Back to School Special / Назад в Спец школу (Zero Tolerance) (Boroka Balls, Angelica Black, Liv Aguilera, Holly Taylor, Giselle Leon...) [2014 г., All Sex, Compilation, Legal Teen, Schoolgirls, 4 Hour, WEB-DL 480p]

kite

9 | 8

2.87 ГБ

В этой теме нет новых непрочитанных сообщений. After School Special / После Школы : Специально (Unknown / Brazzers) (Monique Alexander, Madison Ivy, Phoenix Marie, Amber Ashlee, Rachel Starr...) [2014 г., All Sex, Oral, BigTits, Porn Stars, Pantyhose, Threesomes, DVDRip 400p]

friizze

17 | 7

3.09 ГБ

В этой теме нет новых непрочитанных сообщений. Прежде чем мы расстанемся / Before We Go (Крис Эванс) [2014, драма, мелодрама, комедия, HDRip] mvo

Dracon

2834 | 511

1.45 ГБ

В этой теме нет новых непрочитанных сообщений. Прежде чем мы расстанемся / Before We Go (Крис Эванс) [2014, драма, мелодрама, комедия, BDRip 720p] mvo

Dracon

807 | 157

6.43 ГБ


Начать новую тему Ответить на тему  [ 1 сообщение ] 




Для Мосгорсуда, Роскомнадзора и рекламодателей:: mosgorsud-torrent[собачка]yandex.ru