Торрент файл
скачать торрент магнет ссылка Добавлен: 08 янв 2012, 23:15
Размер: 4.37 ГБ
Сидеров: 19
Личеров: 9
Автор

СообщениеДобавлено: 08 янв 2012, 23:15 

Не в сети
Супермодератор
Аватара пользователя
Дата регистрации:
11 апр 2010, 18:10
Спасибо: 5799 / 7
Сообщения: 56779
Любовь по правилам и без / Something's Gotta Give

Перевод: Профессиональный (полное дублирование)
Субтитры: Отсутствуют
Формат: DVD5, DVD Video, MPEG2, AC3
Страна: США
Режиссер: Нэнси Мейерс
Жанр: Комедия, мелодрама
Продолжительность: 02:03:02
Год выпуска: 2003

В ролях: Джек Николсон, Дайан Китон, Киану Ривз, Фрэнсис МакДорманд, Аманда Пит, Джон Фавро, Пол Майкл Глейзер, Рейчел Тикотин, Пейдж Батчер, Таня Свит

Роли дублировали: Алексей Колган, Любовь Германова, Анатолий Белый, Нина Тобилевич, Борис Шувалов

Описание: Пожилой функционер музыкальной индустрии Гарри Лангер питает нежные чувства к молоденькой Марин. Внезапный сердечный удар, приключившийся с Гарри в доме матери его любовницы, Эрики, провоцирует создание любовного треугольника, но с иным раскладом, ибо вызванный для оказания помощи врач, так же, как и его пациент, внезапно влюбляются в Эрику…

Рейтинг на КиноПоиск: 7.405 (4 469)
Рейтинг на IMDb: 6.8/10
Рейтинг MPAA: PG-13

Видео: 720X576 (PAL 16:9), 25.000fps, MPEG-2 Video, ~7 500Kbps
Аудио: Русский 48,0KHz, AC-3, 6 ch, ~384Kbps [Профессиональный (полное дублирование)]


Трейлер к фильму

General
Complete name: C:\загрузка\Something's_Gotta_Give_[tfile.ru]\VIDEO_TS\VTS_01_2.VOB
Format: MPEG-PS
File size: 1 024 MiB
Duration: 29mn 24s
Overall bit rate: 4 870 Kbps

Video
ID: 224 (0xE0)
Format: MPEG Video
Format version: Version 2
Format profile: Main@Main
Format settings, Matrix: Default
Duration: 29mn 23s
Bit rate mode: Variable
Bit rate: 4 292 Kbps
Nominal bit rate: 7 500 Kbps
Width: 720 pixels
Height: 576 pixels
Display aspect ratio: 16/9
Frame rate: 25.000 fps
Standard: PAL
Colorimetry: 4:2:0
Scan type: Progressive
Scan order: Top Field First
Bits/(Pixel*Frame): 0.414
Stream size: 902 MiB (88%)

Audio
ID: 128 (0x80)
Format: AC-3
Format/Info: Audio Coding 3
Duration: 29mn 24s
Bit rate mode: Constant
Bit rate: 384 Kbps
Channel(s): 6 channels
Channel positions: Front: L C R, Surround: L R, LFE
Sampling rate: 48.0 KHz
Video delay: -432ms
Stream size: 80.7 MiB (8%)

Menu
Format: DVD-Video

Сценарий: Нэнси Мейерс
Продюсер: Брюс А. Блок, Сюзанн МакНейлл Фаруелл, Нэнси Мейерс
Оператор: Михаэль Балльхаус
Композитор: Ханс Циммер
Художник: Джон Хатмэн, Сюзанн МакКейб, Джон Уорнке, ...
Монтаж: Джо Хатшинг
Бюджет: $80 000 000
Сборы в США: $124 728 738
Сборы в мире: + $142 000 000 = $266 728 738
Сборы в России: $2 052 000
Зрители: США20.4 млн., Германия3.01 млн., Испания1.73 млн.
Премьера (мир): 12 декабря 2003
Премьера (РФ): 4 марта 2004, «Каро-Премьер»















Поделиться:




реклама партнёра


Вернуться к началу
 Профиль Отправить личное сообщение  
 
   Похожие торренты   Автор   Торрент   Размер 
В этой теме нет новых непрочитанных сообщений. Все в порядке, это любовь / Просто это любовь / Ничего страшного, это любовь / It's Okay It's Love [01-16 из 16](Ким Кю Тхэ)[2014, мелодрама, романтика, комедия, психология, HDTVRip 720р]

Nickolas3435

9 | 5

18.51 ГБ

В этой теме нет новых непрочитанных сообщений. Любовь по рецепту и без / Любовь, секс и химия / Better Living Through Chemistry [комедия, драма, 2014] DVD5, Dub [Лицензия]

Dracon

26 | 2

4.17 ГБ

В этой теме нет новых непрочитанных сообщений. Стажер / The Intern (Нэнси Майерс) [2015, Мелодрама, комедия , WEB-DLRip-AVC 1080p] [DD5.1] [Dub Rus , Eng]+[Sub Rus , Eng]

Враг Нароода

14 | 1

5.35 ГБ

В этой теме нет новых непрочитанных сообщений. Любовь в словах и картинах / Любовь в словах и картинках / Words and Pictures [драма, мелодрама, комедия, 2013] HDRip, Dub [НТВ]

Dracon

244 | 18

1.45 ГБ

В этой теме нет новых непрочитанных сообщений. Любовь есть любовь / Love is love / Wang fu cheng long (Томми Леунг Ка-Шу / Tommy Ga-shu Leung) [1990г., Китай, мелодрама, комедия, HDRip] VO

Alfredovich

6 | 5

1.46 ГБ

В этой теме нет новых непрочитанных сообщений. Любовь сквозь время / Winter's Tale [Фэнтези, драма, мелодрама, детектив, 2014] DVD5, Dub+Sub [Сжатый]

Dracon

46 | 6

4.37 ГБ

В этой теме нет новых непрочитанных сообщений. Нереальная любовь [комедия, 2014] DVD5 [Лицензия]

Dracon

122 | 4

4.2 ГБ


Начать новую тему Ответить на тему  [ 1 сообщение ] 




Для Мосгорсуда, Роскомнадзора и рекламодателей:: mosgorsud-torrent[собачка]yandex.ru