Торрент файл
скачать торрент магнет ссылка Добавлен: 08 янв 2012, 23:12
Размер: 4.25 ГБ
Сидеров: 0
Личеров: 6
Автор

СообщениеДобавлено: 08 янв 2012, 23:12 

Не в сети
Супермодератор
Аватара пользователя
Дата регистрации:
11 апр 2010, 18:10
Спасибо: 5960 / 7
Сообщения: 56765
Решающий шаг / A Vos Marques, Party!

Перевод: Профессиональный (двухголосый)
Субтитры: Отсутствуют
Формат: DVD5, DVD Video, MPEG2, AC3
Страна: Канада
Режиссер:Фредерик Д'Амур
Жанр: Комедия, мелодрама, спорт
Продолжительность: 01:54:13
Год выпуска: 2007

В ролях: Хелен Буржуа Леклерк, Yanick Bousquet, Catherine de Léan, Maxime Desbiens Tremblay, Мелисса Дезормо-Полен, Александр Деспати, Роксана Годетт-Луазо, Гай Джодоин, Джессика Кардос, Алисса ЛаБелль

Описание: Главная героиня этого фильма — очаровательная девушка, талантливая спортсменка, мечтающая найти настоящую любовь и верных друзей. Насмешки одноклассников заставили ее уйти из школьной сборной, замкнуться в себе. Кто же поможет девушке поверить в себя? Старый друг и первая любовь, лучший спортсмен и секс-символ школы, новая подружка из Европы и мама, нашедшая дочь после долгих лет разлуки.

Рейтинг на КиноПоиск: 8.038 (26)

Видео: 720X576 (NTSC 4:3), 25.000fps, MPEG-2 Video, ~ 6 900Kbps avg
Аудио#1: Русский 48.0KHz, AC-3, 2 ch, ~192Kbps avg[Профессиональный (двухголосый)]
Аудио#2: Французский 48.0KHz, AC-3, 2 ch, ~192Kbps avg [Оригинал]



General
Complete name: C:\загрузка\A_vos_marques_party_[tfile.ru]\VIDEO_TS\VTS_01_2.VOB
Format: MPEG-PS
File size: 1 024 MiB
Duration: 27mn 32s
Overall bit rate: 5 198 Kbps

Video
ID: 224 (0xE0)
Format: MPEG Video
Format version: Version 2
Format profile: Main@Main
Format settings, Matrix: Default
Duration: 27mn 32s
Bit rate mode: Variable
Bit rate: 4 608 Kbps
Nominal bit rate: 6 900 Kbps
Width: 720 pixels
Height: 576 pixels
Display aspect ratio: 4/3
Frame rate: 25.000 fps
Standard: NTSC
Colorimetry: 4:2:0
Scan type: Interlaced
Scan order: Bottom Field First
Bits/(Pixel*Frame): 0.444
Stream size: 908 MiB (89%)

Audio #1
ID: 128 (0x80)
Format: AC-3
Format/Info: Audio Coding 3
Duration: 27mn 32s
Bit rate mode: Constant
Bit rate: 192 Kbps
Channel(s): 2 channels
Channel positions: L R
Sampling rate: 48.0 KHz
Video delay: -480ms
Stream size: 37.8 MiB (4%)

Audio #2
ID: 129 (0x81)
Format: AC-3
Format/Info: Audio Coding 3
Duration: 27mn 32s
Bit rate mode: Constant
Bit rate: 192 Kbps
Channel(s): 2 channels
Channel positions: L R
Sampling rate: 48.0 KHz
Video delay: -480ms
Stream size: 37.8 MiB (4%)

Menu
Format: DVD-Video

Сценарий: Кэролайн Херокс, Мартин Паге
Продюсер: Кэролайн Херокс, Стефани Херокс, Кристиан Лярош
Оператор: Жан-Пьерр Трудел
Композитор: Mario Sévigny
Художник: Lyse Bédard, Франсуа Ламонтейн
Монтаж: Eric Genois
Бюджет: CAD 2 500 000
Премьера (мир): 30 марта 2007
Релиз на DVD: 5 февраля 2009, 23 октября 2008, «Мьюзик-Трейд»


















Поделиться:




реклама партнёра


Вернуться к началу
 Профиль Отправить личное сообщение  
 
   Похожие торренты   Автор   Торрент   Размер 
В этой теме нет новых непрочитанных сообщений. Сент-Амур: Удовольствия любви / Saint Amour [комедия, 2016] WEB-DLRip, Dub [Line]

salma3

1136 | 90

1.37 ГБ

В этой теме нет новых непрочитанных сообщений. Охота Ханта / The Hunting Party [Триллер, комедия, военный, 2007] BDRip 720p, Dub

salma3

33 | 20

4.36 ГБ

В этой теме нет новых непрочитанных сообщений. Домашняя вечеринка / House Party [мелодрама, комедия, музыка, 1990] WEB-DL 1080p, Mvo+Avo+Sub

salma3

25 | 4

4.4 ГБ

В этой теме нет новых непрочитанных сообщений. Cвадебная вечеринка / The Wedding Party (Зане Эконому / Thane Economou) [2016г., мелодрама, комедия, WEB-DLRip] MVO

Alfredovich

0 | 0

1.37 ГБ

В этой теме нет новых непрочитанных сообщений. Убить Булью / Kill Buljo: The Movie [боевик, драма, мелодрама, 2007] DVD5, Mvo+Sub

salma3

8 | 8

4.26 ГБ

В этой теме нет новых непрочитанных сообщений. Из 13 в 30 / 13 Going on 30 [Комедия, мелодрама, 2004] DVD5, Mvo

salma3

7 | 0

4.33 ГБ

В этой теме нет новых непрочитанных сообщений. Мой наставник / My Tutor [Комедия, мелодрама, 1983] DVD5, Avo+Sub

salma3

0 | 4

4.16 ГБ


Начать новую тему Ответить на тему  [ 1 сообщение ] 




Для Мосгорсуда, Роскомнадзора и рекламодателей:: mosgorsud-torrent[собачка]yandex.ru