Торрент файл
скачать торрент магнет ссылка Добавлен: 08 янв 2012, 23:12
Размер: 4.36 ГБ
Сидеров: 0
Личеров: 6
Автор

СообщениеДобавлено: 08 янв 2012, 23:12 

Не в сети
Супермодератор
Аватара пользователя
Дата регистрации:
11 апр 2010, 18:10
Спасибо: 5802 / 7
Сообщения: 56779
Лапочка / Honey

Перевод: Профессиональный (полное дублирование)
Субтитры:Русские
Формат: DVD5, DVD Video, MPEG2, AC3
Страна: США
Режиссер: Билле Вудрафф
Жанр: Мелодрама, музыка
Продолжительность: 01:30:10
Год выпуска: 2003

В ролях: Джессика Альба, Лил Ромео, Мехи Файфер, Дэвид Москоу, Захари Уильямс, Джой Брайант, Мисси «Мисдеминор» Эллиотт, Энтони Шервуд, Лонетт МакКи, Уэсли Пэрис

Описание: Молодая танцовщица Хани — успешный хореограф видеоклипов. Однажды девушка получает двусмысленное предложение, которое тем не менее может сделать ее невероятно популярной в мире шоу-бизнеса…
Но будущая звезда, преодолев искушение, решает осуществить мечту всей своей жизни: открыть танцевальную студию для подростков…


Рейтинг на КиноПоиск: 7.095 (6 932)
Рейтинг на IMDb: 4.6/10
Рейтинг MPAA: PG-13

Видео: 720X576 (PAL 16:9), 25.000fps, MPEG-2 Video, ~9 000Kbps avg
Аудио#1: Русский 48.0KHz, AC-3, 6 ch, ~448Kbps avg [Профессиональный (полное дублирование)]
Аудио#2: Английский 48.0KHz, AC-3, 6 ch, ~448Kbps avg [Оригинал]

Доп. информация: Удалено:
Аудиодорожка - " Русский DTS"


Трейлер к фильму
Слоган: «Her dream. Her terms.»

General
Complete name: C:\загрузка\Honey_[tfile.ru]\VIDEO_TS\VTS_04_2.VOB
Format: MPEG-PS
File size: 1 024 MiB
Duration: 24mn 20s
Overall bit rate: 5 881 Kbps

Video
ID: 224 (0xE0)
Format: MPEG Video
Format version: Version 2
Format profile: Main@Main
Format settings, Matrix: Default
Duration: 24mn 20s
Bit rate mode: Variable
Bit rate: 4 751 Kbps
Nominal bit rate: 9 000 Kbps
Width: 720 pixels
Height: 576 pixels
Display aspect ratio: 16/9
Frame rate: 25.000 fps
Standard: PAL
Colorimetry: 4:2:0
Scan type: Interlaced
Scan order: Top Field First
Bits/(Pixel*Frame): 0.458
Stream size: 827 MiB (81%)

Audio #1
ID: 128 (0x80)
Format: AC-3
Format/Info: Audio Coding 3
Duration: 24mn 20s
Bit rate mode: Constant
Bit rate: 448 Kbps
Channel(s): 6 channels
Channel positions: Front: L C R, Surround: L R, LFE
Sampling rate: 48.0 KHz
Video delay: -440ms
Stream size: 78.0 MiB (8%)

Audio #2
ID: 129 (0x81)
Format: AC-3
Format/Info: Audio Coding 3
Duration: 24mn 20s
Bit rate mode: Constant
Bit rate: 448 Kbps
Channel(s): 6 channels
Channel positions: Front: L C R, Surround: L R, LFE
Sampling rate: 48.0 KHz
Video delay: -440ms
Stream size: 78.0 MiB (8%)

Text
ID: 32 (0x20)
Format: RLE
Format/Info: Run-length encoding
Duration: 24mn 20s
Video delay: -440ms

Menu
Format: DVD-Video

Если бы не виртуозные танцы под заводную музыку хип-хопа, которых всё-таки немало в этой ленте, она превратилась бы в весьма заунывную драму социального плана, рассказывающую о том, как неравнодушная и инициативная девушка по имени Хани Дэниелс, заботясь о подрастающем поколении и желая спасти детей от дурного влияния улицы, организовала танцевальный коллектив. К тому же она сама относится, по всей видимости, к латиноамериканкам по происхождению, а воспитанниками стали преимущественно афроамериканцы. Попутно Хани (кстати, её имя действительно может быть переведено как «Лапочка» — под этим названием фильм вышел в наш прокат) пытается сделать собственную карьеру танцовщицы и хореографа в мире шоу-бизнеса. Но лживый и наглый режиссёр видеоклипов Майкл Эллис, естественно, принадлежащий к числу белых, склоняет её к сожительству, на что гордая молодая женщина отвечает решительным отказом, поскольку начала встречаться с чернокожим владельцем парикмахерской Чэзом, который в юности смог избежать кривой дорожки, ведущей к преступлениям.
По всем сценарным ходам, всего лишь приспособленным к американским реалиям, в общем-то, получается вполне привычная для нас, до боли знакомая картина о «неподдающихся девчатах» и «семи няньках», которые преувеличенно беспокоятся за судьбу «несовершеннолетних» и устраивают для них иную «путёвку в жизнь». Вдобавок этот пафосный капреализм не только настойчиво политкорректен, но и излишне приторен, если тем более вспомнить, что Honey буквально означает «мёд». Вот и главная исполнительница Джессика Альба, которая срочно заменила погибшую в авиакатастрофе популярную певицу Аалию, производит благоприятное, однако «сладенькое» впечатление в роли Лапочки, добивающейся всего благодаря своей целеустремлённости, неуёмности и жизнерадостности. Бравурный хэппи-энд неминуемо гарантирован!

Сценарий: Алонсо Браун, Ким Уотсон
Продюсер: Николь Браун, Андре Харрелл, Билли Хиггинс, ...
Оператор: Джон Р. Леонетти
Композитор: Мервин Уоррен
Художник: Ясна Стефанович, Сьюзэн Мэтисон, Анастасия Масаро, ...
Монтаж: Марк Хелфрич, Эмма Е. Хикокс
Бюджет: $18 000 000
Маркетинг: $15 000 000
Сборы в США: $30 308 417
Сборы в мире: + $28 448 229 = $58 756 646
Сборы в России: $280 000
Зрители:США5.01 млн., Германия1.07 млн., Великобритания725.3 тыс.
Премьера (мир): 24 ноября 2003
Премьера (РФ): 4 марта 2004, «Парадиз»
Релиз на DVD: 9 июня 2009, «Парадиз-ВC»





























Поделиться:




реклама партнёра


Вернуться к началу
 Профиль Отправить личное сообщение  
 
   Похожие торренты   Автор   Торрент   Размер 
В этой теме нет новых непрочитанных сообщений. Лапочка 3 / Honey 3: Dare to Dance [семейный, музыка, мелодрама, 2016] BDRip 720p, Dub [Лицензия]

salma3

161 | 23

3.96 ГБ

В этой теме нет новых непрочитанных сообщений. Лапочка 3 / Honey 3: Dare to Dance [семейный, музыка, мелодрама, 2016] BDRip 1080p, Dub [Лицензия]

salma3

115 | 32

7.89 ГБ

В этой теме нет новых непрочитанных сообщений. Зависимая / Addicted (Билле Вудрафф) [Триллер, драма, 2014] WEB-DL 1080p, avo

Dracon

234 | 12

4.53 ГБ

В этой теме нет новых непрочитанных сообщений. Зависимая / Addicted (Билле Вудрафф) [Триллер, драма, 2014] WEB-DL 720p, avo

Dracon

222 | 17

3.51 ГБ

В этой теме нет новых непрочитанных сообщений. Зависимая / Addicted (Билле Вудрафф) [Триллер, драма, 2014] WEB-DLRip, avo

Dracon

1668 | 75

1.47 ГБ

В этой теме нет новых непрочитанных сообщений. Лапочка 3 / Honey 3: Dare to Dance [семейный, 2016] Blu-Ray CEE, Dub [Лицензия]

salma3

1 | 3

36.15 ГБ

В этой теме нет новых непрочитанных сообщений. Лапочка 3 / Honey 3: Dare to Dance [Семейный, 2016] HDRip, Dub [Лицензия]

salma3

1209 | 189

1.46 ГБ


Начать новую тему Ответить на тему  [ 1 сообщение ] 




Для Мосгорсуда, Роскомнадзора и рекламодателей:: mosgorsud-torrent[собачка]yandex.ru