Торрент файл
скачать торрент магнет ссылка Добавлен: 08 янв 2012, 23:06
Размер: 4.37 ГБ
Сидеров: 1
Личеров: 4
Автор

СообщениеДобавлено: 08 янв 2012, 23:06 

Не в сети
Супермодератор
Аватара пользователя
Дата регистрации:
11 апр 2010, 18:10
Спасибо: 5960 / 7
Сообщения: 56765
Как выйти замуж за 3 дня / Leap Year

Перевод: Профессиональный (полное дублирование)
Субтитры: Английские, турецкие, хорватские, украинские, эстонские, латвийские, литовские, словенские
Формат: DVD5, DVD Video, MPEG2, AC3
Страна: США, Ирландия
Режиссер: Ананд Такер
Жанр: Комедия, мелодрама
Продолжительность: 01:36:05
Год выпуска: 2010

В ролях: Эми Адамс, Мэттью Гуд, Адам Скотт, Джон Литгоу, Ноэль О’Донован, Тони Рор, Пэт Лаффан, Алан Девлин, Йен МакЭлхинни, Доминик МакЭллигот

Роли дублировали: Рамиля Искандер, Алексей Мясников, Илья Бледный, Вероника Саркисова

Описание: В англоязычных странах есть традиция — 29 февраля женщина может сделать предложение мужчине, и он не имеет права отказаться. И вот чопорная дама едет в Дублин, чтобы именно в этот день попробовать сделать предложение своему бойфренду.
Но погода меняет её планы, и чтобы осуществить задуманное, ей приходится прибегнуть к помощи ворчливого ирландца — хозяина гостиницы. Вместе с ним героиня вынуждена путешествовать через всю страну, чтобы успеть вовремя сделать предложение.


Рейтинг на КиноПоиск: 7.090 (4 106)
Рейтинг на IMDb: 6.1/10
Рейтинг MPAA: PG

Видео: 720X576 (PAL 16:9), 25.000fps, MPEG-2 Video, ~7 796Kbps avg
Аудио#1:Английский 48.0KHz, AC-3, 6 ch, ~ 384Kbps avg [Оригинал]
Аудио#2:Русский 48.0KHz, AC-3, 6 ch, ~ 384Kbps avg [Профессиональный (полное дублирование)]



Трейлер к фильму
Слоган: «На что вы готовы ради любви?»

General
Complete name: C:\загрузка\Leap_Year_[tfile.ru]\VIDEO_TS\VTS_01_5.VOB
Format: MPEG-PS
File size: 369 MiB
Duration: 10mn 57s
Overall bit rate: 4 711 Kbps

Video
ID: 224 (0xE0)
Format: MPEG Video
Format version: Version 2
Format profile: Main@Main
Format settings, Matrix: Default
Duration: 10mn 57s
Bit rate mode: Variable
Bit rate: 3 756 Kbps
Nominal bit rate: 8 128 Kbps
Width: 720 pixels
Height: 576 pixels
Display aspect ratio: 16/9
Frame rate: 25.000 fps
Standard: PAL
Colorimetry: 4:2:0
Scan type: Interlaced
Scan order: Top Field First
Bits/(Pixel*Frame): 0.362
Stream size: 294 MiB (80%)

Audio #1
ID: 128 (0x80)
Format: AC-3
Format/Info: Audio Coding 3
Duration: 10mn 57s
Bit rate mode: Constant
Bit rate: 384 Kbps
Channel(s): 6 channels
Channel positions: Front: L C R, Surround: L R, LFE
Sampling rate: 48.0 KHz
Video delay: -656ms
Stream size: 30.1 MiB (8%)

Audio #2
ID: 129 (0x81)
Format: AC-3
Format/Info: Audio Coding 3
Duration: 10mn 57s
Bit rate mode: Constant
Bit rate: 384 Kbps
Channel(s): 6 channels
Channel positions: Front: L C R, Surround: L R, LFE
Sampling rate: 48.0 KHz
Video delay: -656ms
Stream size: 30.1 MiB (8%)

Text #1
ID: 32 (0x20)
Format: RLE
Format/Info: Run-length encoding
Video delay: -656ms

Text #2
ID: 33 (0x21)
Format: RLE
Format/Info: Run-length encoding
Duration: 10mn 54s
Video delay: -656ms

Text #3
ID: 34 (0x22)
Format: RLE
Format/Info: Run-length encoding
Duration: 10mn 54s
Video delay: -656ms

Text #4
ID: 35 (0x23)
Format: RLE
Format/Info: Run-length encoding
Duration: 10mn 54s
Video delay: -656ms

Text #5
ID: 36 (0x24)
Format: RLE
Format/Info: Run-length encoding
Duration: 10mn 54s
Video delay: -656ms

Text #6
ID: 37 (0x25)
Format: RLE
Format/Info: Run-length encoding
Duration: 10mn 54s
Video delay: -656ms

Text #7
ID: 38 (0x26)
Format: RLE
Format/Info: Run-length encoding
Duration: 10mn 54s
Video delay: -656ms

Text #8
ID: 39 (0x27)
Format: RLE
Format/Info: Run-length encoding
Duration: 10mn 54s
Video delay: -656ms

Text #9
ID: 40 (0x2
Format: RLE
Format/Info: Run-length encoding

Text #10
ID: 41 (0x29)
Format: RLE
Format/Info: Run-length encoding

Menu
Format: DVD-Video


Сценарий: Дебора Каплан, Гарри Элфонт
Продюсер: Су Армстронг, Дж.С. Спинк, Джэйк Уэйнер, ...
Оператор: Ньютон Томас Сигел
Композитор: Рэнди Эделмен
Художник: Марк Джерати, Элмер Най Мхаолдомхнэйг, Колман Кориш, ...
Монтаж: Ник Мур
Бюджет: $19 000 000
Сборы в США: $25 918 920
Сборы в мире: + $6 688 396 = $32 607 316
DVD в США: $6 387 413
Премьера (мир): 6 января 2010
Релиз на DVD: 19 октября 2010, «Юниверсал Пикчерс Рус», ...
















Всего на 8-ми языках













Поделиться:




реклама партнёра


Вернуться к началу
 Профиль Отправить личное сообщение  
 
   Похожие торренты   Автор   Торрент   Размер 
В этой теме нет новых непрочитанных сообщений. Как выйти замуж за 3 дня / Leap Year [мелодрама, комедия, 2010] BDRip 720p, Dub+Dvo+Avo+Sub

salma3

92 | 7

4.56 ГБ

В этой теме нет новых непрочитанных сообщений. Как выйти замуж за миллионера-2 [S02] (Наталья Хлопецкая) [Комедия, мелодрама, 2013] WEB-DL 1080p

Dracon

62 | 10

16.3 ГБ

В этой теме нет новых непрочитанных сообщений. Как выйти замуж за миллионера [02x01-12 из 12] (Наталья Хлопецкая) [Комедия, мелодрама, 2013] SATRip

Dracon

421 | 66

6.46 ГБ

В этой теме нет новых непрочитанных сообщений. Выйти замуж любой ценой [01-04 из 04] (Мелодрама, 2016) WEB-DLRip от Files-x

marya111

0 | 0

2.14 ГБ

В этой теме нет новых непрочитанных сообщений. Выйти замуж за Пушкина [01-04 из 08] ( Комедия, 2016) HDTVRip-AVC от Files-x

marya111

62 | 27

3.15 ГБ

В этой теме нет новых непрочитанных сообщений. Выйти замуж за Пушкина [01-04 из 08] (Комедия, 2016) HDTVRip-AVC от Files-x

marya111

256 | 111

6.29 ГБ

В этой теме нет новых непрочитанных сообщений. Срочно выйду замуж [Комедия, мелодрама, 2015] WEB-DLRip

Dracon

19987 | 1354

1.46 ГБ


Начать новую тему Ответить на тему  [ 1 сообщение ] 




Для Мосгорсуда, Роскомнадзора и рекламодателей:: mosgorsud-torrent[собачка]yandex.ru