Торрент файл
скачать торрент магнет ссылка Добавлен: 08 янв 2012, 23:04
Размер: 4.37 ГБ
Сидеров: 0
Личеров: 5
Автор

СообщениеДобавлено: 08 янв 2012, 23:04 

Не в сети
Супермодератор
Аватара пользователя
Дата регистрации:
11 апр 2010, 18:10
Спасибо: 5960 / 7
Сообщения: 56765
Том и Вайт уделывают Америку / Friendship!

Перевод: Профессиональный (многоголосый, закадровый)
Субтитры: Отсутствуют
Формат: DVD5, DVD Video, MPEG2, AC3
Страна: США,Германия
Режиссер: Маркус Голлер
Жанр: Мелодрама, комедия
Продолжительность: 01:44:40
Год выпуска: 2010

В ролях: Маттиас Швайгхефер, Фридрих Мюке, Алиция Бахледа-Цуруш, Кимберли Дж. Браун, Камерон Гудман, Тодд Стэшвик, Крис Браунинг, Кевин О. Ранкин, Натали Гал, Хейли Дерриберри ...

Описание: 1989 год. Германия. Падение Берлинской стены открыло перед двумя друзьями дорогу через океан — в Америку. Ничто и никто не омрачит их веселое путешествие! Даже языковой барьер не станет для них серьезным препятствием. Ведь язык любви, как известно, интернационален. Друзья держат путь в Сан-Франциско. Именно в этом городе они мечтают оторваться по полной. Держись, Америка!

Рейтинг на КиноПоиск: 6.843 (537)
Рейтинг на IMDb: 6.7/10

Видео: 720X576 (PAL 4:3), 25.000fps, MPEG-2 Video, ~ 7 428Kbps avg
Аудио#1: Русский 48.0KHz, AC-3, 2 ch, ~ 192Kbps [Профессиональный (многоголосый, закадровый)][/field]
Аудио#2: Немецкий 48.0KHz, AC-3, 2 ch, ~ 192Kbps [Оригинал]



Трейлер к фильму

General
Complete name: C:\загрузка\Friendship_[tfile.ru]\VIDEO_TS\VTS_01_3.VOB
Format: MPEG-PS
File size: 1 024 MiB
Duration: 22mn 51s
Overall bit rate: 6 262 Kbps

Video
ID: 224 (0xE0)
Format: MPEG Video
Format version: Version 2
Format profile: Main@Main
Format settings, Matrix: Default
Duration: 22mn 51s
Bit rate mode: Variable
Bit rate: 5 629 Kbps
Nominal bit rate: 7 428 Kbps
Width: 720 pixels
Height: 576 pixels
Display aspect ratio: 4/3
Frame rate: 25.000 fps
Standard: PAL
Colorimetry: 4:2:0
Scan type: Interlaced
Scan order: Top Field First
Bits/(Pixel*Frame): 0.543
Stream size: 920 MiB (90%)

Audio #1
ID: 128 (0x80)
Format: AC-3
Format/Info: Audio Coding 3
Duration: 22mn 51s
Bit rate mode: Constant
Bit rate: 192 Kbps
Channel(s): 2 channels
Channel positions: L R
Sampling rate: 48.0 KHz
Video delay: -472ms
Stream size: 31.4 MiB (3%)

Audio #2
ID: 129 (0x81)
Format: AC-3
Format/Info: Audio Coding 3
Duration: 22mn 51s
Bit rate mode: Constant
Bit rate: 192 Kbps
Channel(s): 2 channels
Channel positions: L R
Sampling rate: 48.0 KHz
Video delay: -472ms
Stream size: 31.4 MiB (3%)

Menu
Format: DVD-Video

Сценарий: Оливер Зигенбальг
Продюсер: Марко Бекманн, Квирин Берг, Дэвид Греневольд, ...
Оператор: Юли Штайгер
Композитор: Андреж Мелита, Мартин Пробст
Художник: Дебора Райли, Мария Шикер, Вильгельм Пфау
Монтаж: Оливия Ретцер
Зрители: Германия1.54 млн.
Премьера (мир) 14 января 2010
Премьера (РФ): 9 декабря 2010, «Каскад»
Релиз на DVD: 28 октября 2010, «CP-Digital», ...




















Поделиться:




реклама партнёра


Вернуться к началу
 Профиль Отправить личное сообщение  
 
   Похожие торренты   Автор   Торрент   Размер 
В этой теме нет новых непрочитанных сообщений. Любовь и дружба / Love & Friendship [драма, мелодрама, комедия, 2016] WEBRip, Mvo

salma3

607 | 58

1.37 ГБ

В этой теме нет новых непрочитанных сообщений. Поездка в Америку / Coming To America [Комедия, мелодрама, драма, 1988] BDRip, Dvo

salma3

25 | 1

2.19 ГБ

В этой теме нет новых непрочитанных сообщений. Поездка в Америку / Coming to America (Джон Лэндис) [Комедия, Мелодрама, 1988] BDRip 720p, Mvo+Dvo+Avo+Sub

Dracon

10 | 4

9.05 ГБ

В этой теме нет новых непрочитанных сообщений. 10 000 км: Любовь на расстоянии / 10.000 Km (Карлос Маркус-Марсет) [драма, мелодрама, комедия, 2014] WEB-DL 1080p, Mvo

Dracon

21 | 1

3.01 ГБ

В этой теме нет новых непрочитанных сообщений. 10 000 км: Любовь на расстоянии / 10.000 Km (Карлос Маркус-Марсет) [драма, мелодрама, комедия, 2014] WEB-DLRip, Mvo

Dracon

101 | 4

1.36 ГБ

В этой теме нет новых непрочитанных сообщений. Кевин и Перри уделывают всех / Kevin & Perry Go Large [комедия, музыка, 2000] WEB-DLRip, Mvo

salma3

39 | 6

1.46 ГБ

В этой теме нет новых непрочитанных сообщений. Искусственный рай / Paraísos Artificiais / Artificial Paradises (Маркус Прадо / Marcos Prado) [2012г., Бразилия, драма, мелодрама, BDRip] MVO

Alfredovich

64 | 6

748.1 МБ


Начать новую тему Ответить на тему  [ 1 сообщение ] 




Для Мосгорсуда, Роскомнадзора и рекламодателей:: mosgorsud-torrent[собачка]yandex.ru