Торрент файл
скачать торрент магнет ссылка Добавлен: 08 янв 2012, 23:02
Размер: 4.3 ГБ
Сидеров: 2
Личеров: 6
Автор

СообщениеДобавлено: 08 янв 2012, 23:02 

Не в сети
Супермодератор
Аватара пользователя
Дата регистрации:
11 апр 2010, 18:10
Спасибо: 5801 / 7
Сообщения: 56779
Артистка

Перевод: Не требуется
Субтитры: Русские
Формат: DVD5, DVD Video, MPEG2, AC3
Страна: Россия
Режиссер: Станислав Говорухин
Жанр: Комедия, драма
Продолжительность: 01:36:10
Год выпуска: 2007

В ролях: Мария Аронова, Дмитрий Певцов, Евгения Добровольская, Юрий Степанов, Фёдор Бондарчук, Александр Абдулов, Михаил Ефремов, Евгений Косырев, Юлия Ауг, Дмитрий Мазуров ...

Описание: Жила-была одна артистка. Способная, но не очень везучая. Не складывалась как-то ее судьба ни в театре, ни в кино, ни в личной жизни. Переживала, конечно. А в соседней квартире жила ее любимая подруга с мужем. Ну и … как это часто бывает в жизни — не было ни гроша, да вдруг алтын.
Пришел как-то в гости к семейной паре одноклассник мужа. Известный ученый, доктор наук, профессор. И возникло у него к нашей героине нежное чувство. А вскоре и роль, о которой мечтала наша героиня, появилась. А тут и сказке конец…


Рейтинг на КиноПоиск: 7.376 (819)
Рейтинг на IMDb: 6.6/10

Видео: 720X576 (PAL 4:3), 25.000fps, MPEG-2 Video, ~ 7 840Kbps avg
Аудио#1: Русский 48.0KHz, AC-3, 6 ch, ~ 448Kbps avg
Аудио#2: Русский 48.0KHz, AC-3, 2 ch, ~ 192Kbps avg
Аудио#3: Русский 48.0KHz, DTS, 6 ch, ~ 755Kbps avg

Дополнительно на DVD: Рабочие моменты,фотоальбом, смотрите на DVD[/field]

Меню: Анимированное / озвученное



Трейлер к фильму
Слоган: «Праздник души!»

General
Complete name: C:\загрузка\Artistka_[tfile.ru]\VIDEO_TS\VTS_05_2.VOB
Format: MPEG-PS
File size: 1 024 MiB
Duration: 35mn 47s
Overall bit rate: 4 000 Kbps

Video
ID: 224 (0xE0)
Format: MPEG Video
Format version: Version 2
Format profile: Main@Main
Format settings, Matrix: Default
Duration: 35mn 47s
Bit rate mode: Variable
Bit rate: 2 447 Kbps
Nominal bit rate: 8 164 Kbps
Width: 720 pixels
Height: 576 pixels
Display aspect ratio: 4/3
Frame rate: 25.000 fps
Standard: PAL
Colorimetry: 4:2:0
Scan type: Interlaced
Scan order: Top Field First
Bits/(Pixel*Frame): 0.236
Stream size: 626 MiB (61%)

Audio #1
ID: 128 (0x80)
Format: AC-3
Format/Info: Audio Coding 3
Duration: 35mn 47s
Bit rate mode: Constant
Bit rate: 448 Kbps
Channel(s): 6 channels
Channel positions: Front: L C R, Surround: L R, LFE
Sampling rate: 48.0 KHz
Video delay: -616ms
Stream size: 115 MiB (11%)

Audio #2
ID: 129 (0x81)
Format: AC-3
Format/Info: Audio Coding 3
Duration: 35mn 47s
Bit rate mode: Constant
Bit rate: 192 Kbps
Channel(s): 2 channels
Channel positions: L R
Sampling rate: 48.0 KHz
Video delay: -616ms
Stream size: 49.2 MiB (5%)

Audio #3
ID: 138 (0x8A)
Format: DTS
Format/Info: Digital Theater Systems
Duration: 35mn 47s
Bit rate mode: Constant
Bit rate: 755 Kbps
Channel(s): 6 channels
Channel positions: Front: L C R, Surround: L R, LFE
Sampling rate: 48.0 KHz
Resolution: 16 bits
Video delay: -616ms
Stream size: 193 MiB (19%)

Text
ID: 32 (0x20)
Format: RLE
Format/Info: Run-length encoding
Duration: 35mn 47s
Video delay: -616ms

Menu
Format: DVD-Video

Сценарий: Валерий Мухарьямов
Продюсер: Екатерина Маскина
Оператор: Валерий Мюльгаут
Художник: Валентин Гидулянов
Сборы в России: $883 400
Зрители: Россия118.2 тыс.
Премьера (РФ): 30 августа 2007, «Фокс/Гемини»
Релиз на DVD: 4 марта 2010, «Мистерия Звука», ...



























Поделиться:




реклама партнёра


Вернуться к началу
 Профиль Отправить личное сообщение  
 
   Похожие торренты   Автор   Торрент   Размер 
В этой теме нет новых непрочитанных сообщений. Конец прекрасной эпохи (Станислав Говорухин) [драма, комедия, 2015] WEB-DLRip [iTunes]

Dracon

8727 | 326

1.46 ГБ

В этой теме нет новых непрочитанных сообщений. Конец прекрасной эпохи (Станислав Говорухин) [драма, комедия, 2015] WEB-DL 720p [iTunes]

Dracon

1908 | 54

2.91 ГБ

В этой теме нет новых непрочитанных сообщений. Конец прекрасной эпохи (Станислав Говорухин) [драма, комедия, 2015] WEB-DL 1080p [iTunes]

Dracon

1389 | 38

3.53 ГБ

В этой теме нет новых непрочитанных сообщений. Уик-Энд / Weekend (Станислав Говорухин) [2014, драма, детектив, криминал, WEB-DL 720p]

Nickolas3435

374 | 18

2.95 ГБ

В этой теме нет новых непрочитанных сообщений. Хитмэн / Hitman [боевик, триллер, драма, криминал, 2007] DVD5, Dub+Sub

salma3

70 | 13

4.25 ГБ

В этой теме нет новых непрочитанных сообщений. Огнепоклонники / Blue Smoke [Триллер, драма, мелодрама, 2007] DVD5, Mvo+Sub [Лицензия]

salma3

4 | 3

4.36 ГБ

В этой теме нет новых непрочитанных сообщений. Убить Булью / Kill Buljo: The Movie [боевик, драма, мелодрама, 2007] DVD5, Mvo+Sub

salma3

8 | 8

4.26 ГБ


Начать новую тему Ответить на тему  [ 1 сообщение ] 




Для Мосгорсуда, Роскомнадзора и рекламодателей:: mosgorsud-torrent[собачка]yandex.ru