Торрент файл
скачать торрент магнет ссылка Добавлен: 08 янв 2012, 23:01
Размер: 4.26 ГБ
Сидеров: 0
Личеров: 6
Автор

СообщениеДобавлено: 08 янв 2012, 23:01 

Не в сети
Супермодератор
Аватара пользователя
Дата регистрации:
11 апр 2010, 18:10
Спасибо: 5801 / 7
Сообщения: 56779
Код апокалипсиса

Перевод: Не требуется
Субтитры: Русские
Формат: DVD5, DVD Video, MPEG2, AC3
Страна: Россия
Режиссер: Вадим Шмелев
Жанр: Боевик, приключения
Продолжительность: 01:45:31
Год выпуска: 2007

В ролях: Анастасия Заворотнюк, Венсан Перес, Владимир Меньшов, Алексей Серебряков, Олег Штефанко, Оскар Кучера, Сергей Газаров, Борис Токарев, Георгий Тесля-Герасимов, Анжелика Каширина ...

Описание: Террорист № 1 Джаффад Бен Зайиди похитил с затонувшей американской подлодки четыре ядерные боеголовки, спрятав их в крупнейших мегаполисах мира. Заряд активируется одиннадцатизначным кодом, узнать который можно лишь собрав воедино цифры, известные трем приближенным Джаффада, которых никто не видел в лицо.
Но террориста убивают при странных обстоятельствах, а его бывший напарник по прозвищу Палач намерен привести бомбы в действие. По его следу пускаются объединившие усилия ФСБ и ЦРУ, чей агент Мари несколько лет назад внедрилась в группировку Джаффада. Теперь под новой легендой ей предстоит спасти мир.


Рейтинг на КиноПоиск: 4.255 (6 15
Рейтинг на IMDb: 4.8/10

Видео: 720X576 (PAL 16:9), 25.000fps, MPEG-2 Video, ~ 9 800Kbps avg
Аудио#1: Русский 48.0KHz, AC-3, 6 ch, ~ 448Kbps avg[/field]
Аудио#2: Русский 48.0KHz, AC-3, 2 ch, ~ 192Kbps avg

Меню:Анимированное / озвученное



Трейлер к фильму


General
Complete name: C:\загрузка\Kod_apokalipsisa_[tfile.ru]\VIDEO_TS\VTS_06_3.VOB
Format: MPEG-PS
File size: 1 024 MiB
Duration: 28mn 55s
Overall bit rate: 4 948 Kbps

Video
ID: 224 (0xE0)
Format: MPEG Video
Format version: Version 2
Format profile: Main@Main
Format settings, Matrix: Default
Duration: 28mn 55s
Bit rate mode: Variable
Bit rate: 4 111 Kbps
Nominal bit rate: 9 800 Kbps
Width: 720 pixels
Height: 576 pixels
Display aspect ratio: 16/9
Frame rate: 25.000 fps
Standard: PAL
Colorimetry: 4:2:0
Scan type: Interlaced
Scan order: Top Field First
Bits/(Pixel*Frame): 0.397
Stream size: 851 MiB (83%)

Audio #1
ID: 128 (0x80)
Format: AC-3
Format/Info: Audio Coding 3
Duration: 28mn 55s
Bit rate mode: Constant
Bit rate: 448 Kbps
Channel(s): 6 channels
Channel positions: Front: L C R, Surround: L R, LFE
Sampling rate: 48.0 KHz
Video delay: -832ms
Stream size: 92.7 MiB (9%)

Audio #2
ID: 129 (0x81)
Format: AC-3
Format/Info: Audio Coding 3
Duration: 28mn 55s
Bit rate mode: Constant
Bit rate: 192 Kbps
Channel(s): 2 channels
Channel positions: L R
Sampling rate: 48.0 KHz
Video delay: -832ms
Stream size: 39.7 MiB (4%)

Text
ID: 32 (0x20)
Format: RLE
Format/Info: Run-length encoding
Video delay: -832ms

Menu
Format: DVD-Video

Кинонаграды «MTV-Россия», 2008 год
Номинации (5):* Лучшая женская роль (Анастасия Заворотнюк)
* Лучший поцелуй — «Агенты Мари и Антон целуются в салоне машины, чтобы замаскироваться от слежки»
* Лучшая драка — «Агент Мари против террориста Палача в бункере»
* Самая зрелищная сцена — «Мари, выйдя из отеля в нижнем белье и развевающемся плаще, расстреливает из пистолета приспешников террориста Палача»
* Прорыв года (Анастасия Заворотнюк)

Сценарий: Денис Карышев, Вадим Шмелев
Продюсер: Сергей Жигунов, Сергей Грибков, Сергей Баженов, ...
Оператор: Даян Гайткулов
Композитор: Дмитрий Даньков, Всеволод Саксонов
Художник: Леван Лазишвили, Алессандро Марвелли, Владимир Наместников
Монтаж: Дмитрий Слобцов
Бюджет: 400 000 000 руб.
Сборы в мире: $10 446 654
Сборы в России: $8 035 021
Зрители: Россия1.41 млн.
Премьера (мир): 4 октября 2007
Премьера (РФ): 4 октября 2007, «Каропрокат»
Релиз на DVD: 10 сентября 2009, «Мистерия Звука», ...






















Поделиться:




реклама партнёра


Вернуться к началу
 Профиль Отправить личное сообщение  
 
   Похожие торренты   Автор   Торрент   Размер 
В этой теме нет новых непрочитанных сообщений. Черта [Серия 1-8 из 8] (Вадим Дубровицкий) [Боевик, приключения, 2014] SATRip

Dracon

30 | 10

4.38 ГБ

В этой теме нет новых непрочитанных сообщений. Орбита Апокалипсиса / Earthfall [фантастика, боевик, 2015] WEB-DL 720p, Mvo [ТВ3]

salma3

2167 | 226

2.85 ГБ

В этой теме нет новых непрочитанных сообщений. Орбита Апокалипсиса / Earthfall [фантастика, боевик, 2015] WEB-DLRip, Mvo [ТВ3]

salma3

13631 | 1264

1.37 ГБ

В этой теме нет новых непрочитанных сообщений. Ниндзя Апокалипсиса / Ninja Apocalypse [фантастика, фэнтези, боевик, 2014] HDRip, avo

Dracon

862 | 29

1.46 ГБ

В этой теме нет новых непрочитанных сообщений. Ниндзя Апокалипсиса / Ninja Apocalypse [Фантастика, фэнтези, боевик, 2014] BDRip 720p, Avo

salma3

81 | 4

4.11 ГБ

В этой теме нет новых непрочитанных сообщений. Хитмэн / Hitman [боевик, триллер, драма, криминал, 2007] DVD5, Dub+Sub

salma3

70 | 13

4.25 ГБ

В этой теме нет новых непрочитанных сообщений. Убить Булью / Kill Buljo: The Movie [боевик, драма, мелодрама, 2007] DVD5, Mvo+Sub

salma3

8 | 8

4.26 ГБ


Начать новую тему Ответить на тему  [ 1 сообщение ] 




Для Мосгорсуда, Роскомнадзора и рекламодателей:: mosgorsud-torrent[собачка]yandex.ru