Торрент файл
скачать торрент магнет ссылка Добавлен: 08 янв 2012, 23:00
Размер: 4.3 ГБ
Сидеров: 0
Личеров: 4
Автор

СообщениеДобавлено: 08 янв 2012, 23:00 

Не в сети
Супермодератор
Аватара пользователя
Дата регистрации:
11 апр 2010, 18:10
Спасибо: 5960 / 7
Сообщения: 56765
Стая / La horde / The Horde


Перевод: Профессиональный (многоголосый, закадровый)
Субтитры: Отсутствуют
Формат: DVD5, DVD Video, MPEG2, AC3
Страна: Франция
Режиссер: Янник Даан, Бенжамен Роше
Жанр: ужасы, боевик, триллер
Продолжительность: 01:32:39
Год выпуска: 2009

В ролях: Клод Перрон, Жан-Пьер Мартен, Дуду Маста, Эрик Эбони, Орельен Рекуан, Антуан Оппенхайм, Джо Престиа, Ив Пиньо, Себастьен Перес

Описание: Действие разворачивается на севере Парижа. Собираясь отомстить безжалостным бандитам за убийство сослуживца, четыре полицейских пробираются в здание, служащее банде гангстеров штаб-квартирой. Замеченные и пойманные, офицеры полиции уже прощаются с жизнью, как вдруг происходит что-то невообразимое: в дом врывается стая кровожадных плотоядных существ, жестоко нападая на всех и каждого. Полицейским и бандитам приходится объединить усилия в отчаянной схватке с ненасытными зомби.
Пройти через этот ночной кошмар удастся не всем. И вспомнят ли они потом, что их свела жажда мести?


Рейтинг на Кинопоиск.RU: 5.912
Рейтинг на IMDB: 6.0/10

Видео: 720x576 (PAL 16:9 ), MPEG 2 Video, 25,000 fps, ~7500 kbps avg
Аудио#1: Русский48 kHz, Dolby AC3, 2 ch, ~224 kbps avg [Профессиональный (многоголосый, закадровый)]
Аудио#2: Французкий48 kHz, Dolby AC3, 2 ch, ~224 kbps avg [Оригинал]

Скачать сэмпл


Полное имя: C:\Documents and Settings\Admin.MICROSOF-68219C\Мои документы\Загрузки\La_Horde\VIDEO_TS\VTS_08_1.VOB
Формат: MPEG-PS
Размер файла: 1024 Мбайт
Продолжительность: 23 м.
Общий поток: 6066 Кбит/сек

Видео
Идентификатор: 224 (0xE0)
Формат: MPEG Video
Версия формата: Version 2
Профиль формата: Main@Main
Параметр BVOP формата: Да
Параметр матрицы формата: По умолчанию
Параметры GOP формата: M=3, N=12
Продолжительность: 23 м.
Вид битрейта: Переменный
Битрейт: 5497 Кбит/сек
Номинальный битрейт: 7500 Кбит/сек
Ширина: 720 пикс.
Высота: 576 пикс.
Соотношение сторон: 16:9
Частота кадров: 25,000 кадр/сек
Стандарт вещания: PAL
Цветовое пространство: YUV
Подвыборка цветности: 4:2:0
Битовая глубина: 8 бит
Тип развёртки: Чересстрочная
Порядок развёртки: Верхнее поле первое
Метод сжатия: С потерями
Бит/(Пиксели*Кадры): 0.530
Размер потока: 928 Мбайт (91%)

Аудио #1
Идентификатор: 128 (0x80)
Формат: AC-3
Формат/Информация: Audio Coding 3
Расширение режима: CM (complete main)
Продолжительность: 23 м.
Вид битрейта: Постоянный
Битрейт: 224 Кбит/сек
Канал(ы): 2 канала(ов)
Расположение каналов: Front: L R
Частота: 48,0 КГц
Битовая глубина: 16 бит
Метод сжатия: С потерями
Размер потока: 37,8 Мбайт (4%)

Аудио #2
Идентификатор: 129 (0x81)
Формат: AC-3
Формат/Информация: Audio Coding 3
Расширение режима: CM (complete main)
Продолжительность: 23 м.
Вид битрейта: Постоянный
Битрейт: 224 Кбит/сек
Канал(ы): 2 канала(ов)
Расположение каналов: Front: L R
Частота: 48,0 КГц
Битовая глубина: 16 бит
Метод сжатия: С потерями
Размер потока: 37,8 Мбайт (4%)

Меню








Поделиться:




реклама партнёра


Вернуться к началу
 Профиль Отправить личное сообщение  
 
   Похожие торренты   Автор   Торрент   Размер 
В этой теме нет новых непрочитанных сообщений. Стая / The Horde [ужасы, боевик, 2016] WEBDLRip, Dvo

salma3

127 | 40

1.37 ГБ

В этой теме нет новых непрочитанных сообщений. Стая / The Horde [ужасы, боевик, 2016] WEB-DLRip, Avo

salma3

605 | 71

1.47 ГБ

В этой теме нет новых непрочитанных сообщений. Стая акул / Shark Swarm [ужасы, боевик, триллер, драма, 2008 ] DVDRip, Mvo

salma3

12 | 12

2.05 ГБ

В этой теме нет новых непрочитанных сообщений. Захваченный / Piege (Янник Сейлет) [Триллер, 2014] BDRip 720p, avo

Dracon

6 | 4

3.38 ГБ

В этой теме нет новых непрочитанных сообщений. Военные игры / War Games: At the End of the Day [Триллер, боевик, ужасы, 2011] DVD5, Mvo

salma3

15 | 11

4.35 ГБ

В этой теме нет новых непрочитанных сообщений. Стая / Flocken (Беата Горделер / Beata Gårdeler) [2015г., Швеция, триллер, драма, WEB-DLRip] MVO

Alfredovich

0 | 0

1.46 ГБ

В этой теме нет новых непрочитанных сообщений. Позывной "Стая" 2 [01-12 из 12] [Боевик, 2014] SATRip

Dracon

824 | 209

6.45 ГБ


Начать новую тему Ответить на тему  [ 1 сообщение ] 




Для Мосгорсуда, Роскомнадзора и рекламодателей:: mosgorsud-torrent[собачка]yandex.ru