Торрент файл
скачать торрент магнет ссылка Добавлен: 08 янв 2012, 22:58
Размер: 4.08 ГБ
Сидеров: 0
Личеров: 3
Автор

СообщениеДобавлено: 08 янв 2012, 22:58 

Не в сети
Супермодератор
Аватара пользователя
Дата регистрации:
11 апр 2010, 18:10
Спасибо: 5802 / 7
Сообщения: 56779
Снежная сказка [Ремастеринг]

Перевод: Не требуется
Субтитры: Отсутствуют
Формат: DVD5, DVD Video, MPEG2, AC3
Страна: СССР
Режиссер: Алексей Сахаров, Эльдар Шенгелая
Жанр: Фэнтези
Продолжительность: 01:06:30
Год выпуска: 1959

В ролях: Игорь Ершов, Алла Кожокина, Клара Лучко, Зинаида Нарышкина, Вера Алтайская, Евгений Леонов, Николай Сергеев, Михаил Пуговкин

Описание: Действие происходит 31 декабря. Старый год не хочет уступать свое место новому и стремится заполучить волшебные часы, которые могут остановить время. Но их обладатель — фантазер Митя — не поддается на его уговоры.
В деревне, недалеко от города Синеярска, жил обыкновенный мальчик Митя. Утром, по дороге в школу, мальчик заметил, что часы с его руки куда-то исчезли. Вскоре в школе появился злой старик и стал искать волшебные часы, чтобы остановить время…


Рейтинг на КиноПоиск: 7.895 (34)
Рейтинг на IMDb: 6.3/10

Видео: 720X576 (PAL 4:3), 25.000fps, MPEG-2 Video, ~ 8 130Kbps avg
Аудио: Русский 48.0KHz, AC-3, 2 ch, ~ 384Kbps avg

Меню:Анимированное / озвученное




General
Complete name: C:\загрузка\Snezhnaya_skazka_[tfile.ru]\VIDEO_TS\VTS_01_3.VOB
Format: MPEG-PS
File size: 1 024 MiB
Duration: 16mn 31s
Overall bit rate: 8 664 Kbps

Video
ID: 224 (0xE0)
Format: MPEG Video
Format version: Version 2
Format profile: Main@Main
Format settings, Matrix: Default
Duration: 16mn 31s
Bit rate mode: Constant
Bit rate: 7 936 Kbps
Nominal bit rate: 8 130 Kbps
Width: 720 pixels
Height: 576 pixels
Display aspect ratio: 4/3
Frame rate: 25.000 fps
Standard: PAL
Colorimetry: 4:2:0
Scan type: Interlaced
Scan order: Top Field First
Bits/(Pixel*Frame): 0.765
Stream size: 938 MiB (92%)

Audio
ID: 128 (0x80)
Format: AC-3
Format/Info: Audio Coding 3
Duration: 16mn 31s
Bit rate mode: Constant
Bit rate: 384 Kbps
Channel(s): 2 channels
Channel positions: L R
Sampling rate: 48.0 KHz
Video delay: -592ms
Stream size: 45.4 MiB (4%)

Menu
Format: DVD-Video

Производство: Мосфильм
Оператор: Виктор Листопадов, Юрий Схиртладзе
Сценарий: Виктор Виткович, Григорий Ягдфельд
Художник: Лев Мильчин
Композитор: Юрий Левитин
Релиз на DVD: 9 апреля 2009, «Мастер Тэйп», ...


















Поделиться:




реклама партнёра


Вернуться к началу
 Профиль Отправить личное сообщение  
 
   Похожие торренты   Автор   Торрент   Размер 
В этой теме нет новых непрочитанных сообщений. Снежная королева 2: Перезаморозка (Алексей Цицилин) [мультфильм, фэнтези, приключения, семейный, 2014] WEB-DLRip

Dracon

25 | 3

1.37 ГБ

В этой теме нет новых непрочитанных сообщений. Снежная королева 2: Перезаморозка (Алексей Цицилин) [мультфильм, фэнтези, приключения, семейный, 2014] WEBRip

Dracon

2713 | 99

1.37 ГБ

В этой теме нет новых непрочитанных сообщений. Снежная королева 2: Перезаморозка (Алексей Цицилин) [мультфильм, фэнтези, приключения, семейный, 2014] WEB-DLRip 720p

Dracon

10 | 2

2.49 ГБ

В этой теме нет новых непрочитанных сообщений. Снежная королева 2: Перезаморозка (Алексей Цицилин) [мультфильм, фэнтези, приключения, семейный, 2014] WEB-DLRip 1080p

Dracon

27 | 4

2.58 ГБ

В этой теме нет новых непрочитанных сообщений. Снежная королева 2: Перезаморозка (Алексей Цицилин) [мультфильм, фэнтези, приключения, семейный, 2014] WEBRip 720p

Dracon

595 | 8

2.25 ГБ

В этой теме нет новых непрочитанных сообщений. Новая рождественская сказка / Scrooged [фэнтези, драма, комедия, 1988] HDRip, Mvo

salma3

66 | 7

1.46 ГБ

В этой теме нет новых непрочитанных сообщений. Илья Чeрт - Снежная повесть [2011, Rock, MP3]

PriZraK

0 | 1

121.21 МБ


Начать новую тему Ответить на тему  [ 1 сообщение ] 




Для Мосгорсуда, Роскомнадзора и рекламодателей:: mosgorsud-torrent[собачка]yandex.ru