Торрент файл
скачать торрент магнет ссылка Добавлен: 08 янв 2012, 22:56
Размер: 4.35 ГБ
Сидеров: 1
Личеров: 6
Автор

СообщениеДобавлено: 08 янв 2012, 22:56 

Не в сети
Супермодератор
Аватара пользователя
Дата регистрации:
11 апр 2010, 18:10
Спасибо: 5801 / 7
Сообщения: 56779
Мистер Судьба / Mr. Destiny


Перевод:Профессиональный (полное дублирование)
Субтитры:Русские,Английские
Формат:DVD5, DVD Video, MPEG2, AC3
Страна:США
Режиссер:Джеймс Орр
Жанр:комедия, фэнтези
Продолжительность:01:45:58
Год выпуска:1990

В ролях:Джеймс Белуши, Линда Хэмилтон, Майкл Кейн, Джон Ловиц, Харт Бокнер, Билл МакКачон, Рене Руссо, Джей О. Сэндерс, Мори Чайкин, Пэт Корли

Описание: У простого служащего Ларри ломается машина. Он останавливается у придорожного кафе и в ожидании помощи решает пропустить стаканчик. Ларри жалуется бармену на свою неудавшуюся жизнь: если бы все сложилось иначе…
Таинственный человек за стойкой молча выслушал его историю. С этого момента судьба Ларри полностью изменилась. Теперь он — один из управляющих преуспевающей фирмы, у него роскошные автомобили и красавица жена. У счастливчика осталось только одно желание… вернуться в прошлое.


Рейтинг IMDB: 6.0/10
Рейтинг Кинопоиск.RU: 7.695
Рейтинг MPAA: PG-13

Видео:720x576 (PAL 16:9), 25.00fps, MPEG2 Video, ~4449 kbps avg
Аудио#1: Английский: 48.0 kHz, AC3, 6 ch, ~384 kbps avg [Оригинал]
Аудио#2:Русский: 48.0 kHz, AC3, 2 ch, ~192 kbps avg [Профессиональный (полное дублирование)]
Аудио#3:Русский: 48.0 kHz, AC3, 6 ch, ~384 kbps avg [Авторский (А. Михалёв)]
Аудио#4:Русский: 48.0 kHz, AC3, 2 ch, ~192 kbps avg [Профессиональный (многоголосый, закадровый)]
Аудио#5:Русский: 48.0 kHz, AC3, 2 ch, ~192 kbps avg [Авторский (А. Мишин)]

Общее
Полное имя: G:\Мистер Судьба\mr_destiny_[tfile.ru]\VIDEO_TS\VTS_01_1.VOB
Формат: MPEG-PS
Размер файла: 1024 Мбайт
Продолжительность: 24 м.
Общий поток: 5911 Кбит/сек

Видео
Идентификатор: 224 (0xE0)
Формат: MPEG Video
Версия формата: Version 2
Профиль формата: Main@Main
Параметр BVOP формата: Да
Параметр матрицы формата: По умолчанию
Параметры GOP формата: M=2, N=12
Продолжительность: 24 м.
Вид битрейта: Переменный
Битрейт: 4449 Кбит/сек
Номинальный битрейт: 9800 Кбит/сек
Ширина: 720 пикс.
Высота: 576 пикс.
Соотношение сторон: 16:9
Частота кадров: 25,000 кадр/сек
Стандарт вещания: PAL
Цветовое пространство: YUV
Подвыборка цветности: 4:2:0
Битовая глубина: 8 бит
Тип развёртки: Чересстрочная
Порядок развёртки: Верхнее поле первое
Метод сжатия: С потерями
Бит/(Пиксели*Кадры): 0.429
Размер потока: 771 Мбайт (75%)

Аудио #1
Идентификатор: 128 (0x80)
Формат: AC-3
Формат/Информация: Audio Coding 3
Расширение режима: CM (complete main)
Продолжительность: 24 м.
Вид битрейта: Постоянный
Битрейт: 384 Кбит/сек
Канал(ы): 6 канала(ов)
Расположение каналов: Front: L C R, Side: L R, LFE
Частота: 48,0 КГц
Битовая глубина: 16 бит
Метод сжатия: С потерями
Размер потока: 66,5 Мбайт (6%)

Аудио #2
Идентификатор: 129 (0x81)
Формат: AC-3
Формат/Информация: Audio Coding 3
Расширение режима: CM (complete main)
Продолжительность: 24 м.
Вид битрейта: Постоянный
Битрейт: 192 Кбит/сек
Канал(ы): 2 канала(ов)
Расположение каналов: Front: L R
Частота: 48,0 КГц
Битовая глубина: 16 бит
Метод сжатия: С потерями
Размер потока: 33,3 Мбайт (3%)

Аудио #3
Идентификатор: 130 (0x82)
Формат: AC-3
Формат/Информация: Audio Coding 3
Расширение режима: CM (complete main)
Продолжительность: 24 м.
Вид битрейта: Постоянный
Битрейт: 384 Кбит/сек
Канал(ы): 6 канала(ов)
Расположение каналов: Front: L C R, Side: L R, LFE
Частота: 48,0 КГц
Битовая глубина: 16 бит
Метод сжатия: С потерями
Размер потока: 66,5 Мбайт (6%)

Аудио #4
Идентификатор: 131 (0x83)
Формат: AC-3
Формат/Информация: Audio Coding 3
Расширение режима: CM (complete main)
Продолжительность: 24 м.
Вид битрейта: Постоянный
Битрейт: 192 Кбит/сек
Канал(ы): 2 канала(ов)
Расположение каналов: Front: L R
Частота: 48,0 КГц
Битовая глубина: 16 бит
Метод сжатия: С потерями
Размер потока: 33,3 Мбайт (3%)

Аудио #5
Идентификатор: 132 (0x84)
Формат: AC-3
Формат/Информация: Audio Coding 3
Расширение режима: CM (complete main)
Продолжительность: 24 м.
Вид битрейта: Постоянный
Битрейт: 192 Кбит/сек
Канал(ы): 2 канала(ов)
Расположение каналов: Front: L R
Частота: 48,0 КГц
Битовая глубина: 16 бит
Метод сжатия: С потерями
Размер потока: 33,3 Мбайт (3%)

Текст #1
Идентификатор: 32 (0x20)
Формат: RLE
Формат/Информация: Run-length encoding

Текст #2
Идентификатор: 33 (0x21)
Формат: RLE
Формат/Информация: Run-length encoding

Меню
























Поделиться:




реклама партнёра


Вернуться к началу
 Профиль Отправить личное сообщение  
 
   Похожие торренты   Автор   Торрент   Размер 
В этой теме нет новых непрочитанных сообщений. Мистер Судьба / Mr. Destiny [комедия, 1990] WEB-DL 720p, 2Avo+2Mvo+Sub

salma3

18 | 3

4.35 ГБ

В этой теме нет новых непрочитанных сообщений. Красотка / Pretty Woman [Комедия, мелодрама, 1990] DVD5, Mvo

salma3

10 | 5

4.35 ГБ

В этой теме нет новых непрочитанных сообщений. Крадущийся тигр, затаившийся дракон: Меч судьбы / Crouching Tiger, Hidden Dragon: Sword of Destiny [фэнтези, боевик, драма, приключения, 2016] WEBRip, Mvo

salma3

4511 | 466

1.45 ГБ

В этой теме нет новых непрочитанных сообщений. Крадущийся тигр, затаившийся дракон: Меч судьбы / Crouching Tiger, Hidden Dragon: Sword of Destiny [фэнтези, боевик, драма, приключения, 2016] WEB-DLRip-AVC, Mvo

salma3

1746 | 221

1.33 ГБ

В этой теме нет новых непрочитанных сообщений. Крадущийся тигр, затаившийся дракон: Меч судьбы / Crouching Tiger, Hidden Dragon: Sword of Destiny [фэнтези, боевик, драма, приключения, 2016] WEBRip 720p, Mvo

salma3

5518 | 542

2.99 ГБ

В этой теме нет новых непрочитанных сообщений. Крадущийся тигр, затаившийся дракон: Меч судьбы / Crouching Tiger, Hidden Dragon: Sword of Destiny [Фэнтези, Боевик, Драма, Приключения, 2016] WEB-DLRip 1080p, Mvo+Sub

salma3

0 | 0

6.43 ГБ

В этой теме нет новых непрочитанных сообщений. Гном по имени Гнорм / A Gnome Named Gnorm [фэнтези, боевик, комедия, приключения, 1990] DVDRip, Mvo [СТС]

salma3

75 | 7

1.46 ГБ


Начать новую тему Ответить на тему  [ 1 сообщение ] 




Для Мосгорсуда, Роскомнадзора и рекламодателей:: mosgorsud-torrent[собачка]yandex.ru