Торрент файл
скачать торрент магнет ссылка Добавлен: 08 янв 2012, 22:56
Размер: 4.32 ГБ
Сидеров: 7
Личеров: 6
Автор

СообщениеДобавлено: 08 янв 2012, 22:56 

Не в сети
Супермодератор
Аватара пользователя
Дата регистрации:
11 апр 2010, 18:10
Спасибо: 5801 / 7
Сообщения: 56779
Беспредел


Перевод: Не требуется
Субтитры: отсутствуют
Формат: DVD5, DVD Video, MPEG2, AC3
Страна: СССР
Режиссер: Игорь Гостев
Жанр: Драма
Продолжительность: 01:36:25
Год выпуска: 1989

В ролях: Андрей Ташков, Лев Дуров, Александр Мохов, Сергей Гармаш, Наиль Идрисов, Андрей Липихин, Антон Андросов, Александр Кузнецов, Ирина Аверина, Михаил Чигарев, Виктор Павлов, Алексей Аблепихин, Олег Рогачов, Михаил Жигалов, Александр Боровиков, Андрей Щербович-Вечер, Алексей Спирин, Лев Поляков, Александр Числов, Борис Юрченко, Генадий Козырь, Александр Коданев, Петр Кононыхин

Описание: В исправительной колонии царят жестокие порядки, установленные администрацией и поддерживаемые среди заключенных с помощью воров в законе. Воровская «элита» творит свой суд и расправу над непокорными.
Главный герой фильма не пожелал мириться с таким положение дел и вместе с несколькими заключенными, разделяющими его взгляды, попытался изменить беспросветную жизнь колонии. Противостояние двух неравных сил привело к бунту. Власти учинили новый беспредел и жестоко подавили стихийный протест заключенных…


Рейтинг на IMDB:7.3/10
Рейтинг Кинопоиск.RU: 7.882

Видео: 720x576 (PAL 4:3), 25,000 fps,MPEG-2 , ~ 8000 Kbps avg
Аудио#1: Русский: 48 kHz, АС3, 2 ch ~ 192 Kbps avg
Аудио#2: Русский: 48 kHz, АС3, 6 ch ~ 384 Kbps avg



Общее
Полное имя: C:\Documents and Settings\Admin\Мои документы\Bespredel_[tfile.ru]\VIDEO_TS\VTS_02_1.VOB
Формат: MPEG-PS
Размер файла: 1024 Мбайт
Продолжительность: 22 м.
Общий поток: 6384 Кбит/сек

Видео
Идентификатор: 224 (0xE0)
Формат: MPEG Video
Версия формата: Version 2
Профиль формата: Main@Main
Параметр BVOP формата: Да
Параметр матрицы формата: По умолчанию
Параметры GOP формата: M=3, N=12
Продолжительность: 22 м.
Вид битрейта: Переменный
Битрейт: 5681 Кбит/сек
Номинальный битрейт: 8000 Кбит/сек
Ширина: 720 пикс.
Высота: 576 пикс.
Соотношение сторон: 4:3
Частота кадров: 25,000 кадр/сек
Стандарт вещания: PAL
Цветовое пространство: YUV
Подвыборка цветности: 4:2:0
Битовая глубина: 8 бит
Тип развёртки: Чересстрочная
Порядок развёртки: Нижнее поле первое
Метод сжатия: С потерями
Бит/(Пиксели*Кадры): 0.548
Размер потока: 911 Мбайт (89%)

Аудио #1
Идентификатор: 128 (0x80)
Формат: AC-3
Формат/Информация: Audio Coding 3
Расширение режима: CM (complete main)
Продолжительность: 22 м.
Вид битрейта: Постоянный
Битрейт: 192 Кбит/сек
Канал(ы): 2 канала(ов)
Расположение каналов: Front: L R
Частота: 48,0 КГц
Битовая глубина: 16 бит
Метод сжатия: С потерями
Задержка видео: -80 мс.
Размер потока: 30,8 Мбайт (3%)

Аудио #2
Идентификатор: 129 (0x81)
Формат: AC-3
Формат/Информация: Audio Coding 3
Расширение режима: CM (complete main)
Продолжительность: 22 м.
Вид битрейта: Постоянный
Битрейт: 384 Кбит/сек
Канал(ы): 6 канала(ов)
Расположение каналов: Front: L C R, Side: L R, LFE
Частота: 48,0 КГц
Битовая глубина: 16 бит
Метод сжатия: С потерями
Задержка видео: -80 мс.
Размер потока: 61,6 Мбайт (6%)

Меню

















Поделиться:




реклама партнёра


Вернуться к началу
 Профиль Отправить личное сообщение  
 
   Похожие торренты   Автор   Торрент   Размер 
В этой теме нет новых непрочитанных сообщений. Беспредел [Драма, криминал, 1989] DVDRip-AVC

Dracon

224 | 9

2.09 ГБ

В этой теме нет новых непрочитанных сообщений. Коэн и Тейт / Cohen and Tate [триллер, 1989] DVD5, Mvo+Avo

salma3

2 | 2

4.32 ГБ

В этой теме нет новых непрочитанных сообщений. Пришелец из глубины / Alien degli abissi [Ужасы, фантастика, 1989] DVD5, Avo

salma3

15 | 4

4.04 ГБ

В этой теме нет новых непрочитанных сообщений. Беспредел в Лос-Анжелесе / The L.A. Riot Spectacular [Комедия, 2005] DVDRip, Avo

salma3

5 | 4

1.37 ГБ

В этой теме нет новых непрочитанных сообщений. Байки из склепа / Tales from the Crypt [ужасы, фэнтези, триллер, комедия, криминал, детектив, 1989] DVD5, Avo

salma3

1 | 3

4.18 ГБ

В этой теме нет новых непрочитанных сообщений. Ленинград 46 [01-32 из 32] (Игорь Копылов) [Драма, 2015] DVB

Dracon

170 | 102

30.67 ГБ

В этой теме нет новых непрочитанных сообщений. Ленинград 46 [01-32 из 32 + послесловие] (Игорь Копылов) [Драма, 2015] SATRip

Dracon

187 | 315

17.75 ГБ


Начать новую тему Ответить на тему  [ 1 сообщение ] 




Для Мосгорсуда, Роскомнадзора и рекламодателей:: mosgorsud-torrent[собачка]yandex.ru