Торрент файл
скачать торрент магнет ссылка Добавлен: 08 янв 2012, 22:56
Размер: 4.36 ГБ
Сидеров: 10
Личеров: 7
Автор

СообщениеДобавлено: 08 янв 2012, 22:56 

Не в сети
Супермодератор
Аватара пользователя
Дата регистрации:
11 апр 2010, 18:10
Спасибо: 5801 / 7
Сообщения: 56779
Антикиллер


Перевод: Не требуется
Субтитры: Отсутствуют
Формат: DVD5, DVD Video, MPEG2, AC3
Страна: Россия
Режиссер: Егор Кончаловский
Жанр: боевик
Продолжительность: 01:53:11
Год выпуска: 2002

В ролях: Гоша Куценко, Михаил Ульянов, Виктор Сухоруков, Евгений Сидихин, Сергей Векслер, Виктория Толстоганова, Александр Белявский, Валентин Голубенко, Иван Бортник, Вячеслав Разбегаев

Описание: «Всё по справедливости...» Бывший сотрудник уголовного розыска майор Коренев по прозвищу Лис, освобождается из заключения. Увы, Фемида бывает слепа. Не малую роль в этом сыграл один из криминальных авторитетов этого города — Шаман.
Сведения счетов с Шаманом и предавшими его коллегами не входили в планы Коренева, оказавшегося в родном городе, который захлестнула волна криминальных войн. Однако, столкнувшись с невероятным преступным беспределом, царившим в городе, и гибелью его друзей, бывший майор Коренев принимает решение навести порядок своими методами…


Рейтинг IMDB: 5.3/10
Рейтинг Кинопоиск.RU: 6.124

Видео: 720x576 (PAL 16:9), 25.00fps, MPEG2 Video, ~4852 kbps avg
Аудио: Русский 48 kHz,AC3, 6ch, ~448 kbps avg



















Общее
Полное имя: G:\Антикиллер (2002)\antikiller_[tfile.ru]\VIDEO_TS\VTS_03_1.VOB
Формат: MPEG-PS
Размер файла: 1024 Мбайт
Продолжительность: 26 м.
Общий поток: 5408 Кбит/сек

Видео
Идентификатор: 224 (0xE0)
Формат: MPEG Video
Версия формата: Version 2
Профиль формата: Main@Main
Параметр BVOP формата: Да
Параметр матрицы формата: По умолчанию
Параметры GOP формата: M=3, N=15
Продолжительность: 26 м.
Вид битрейта: Переменный
Битрейт: 4852 Кбит/сек
Номинальный битрейт: 9000 Кбит/сек
Ширина: 720 пикс.
Высота: 576 пикс.
Соотношение сторон: 16:9
Частота кадров: 25,000 кадр/сек
Стандарт вещания: PAL
Цветовое пространство: YUV
Подвыборка цветности: 4:2:0
Битовая глубина: 8 бит
Тип развёртки: Чересстрочная
Порядок развёртки: Верхнее поле первое
Метод сжатия: С потерями
Бит/(Пиксели*Кадры): 0.468
Размер потока: 919 Мбайт (90%)

Аудио
Идентификатор: 128 (0x80)
Формат: AC-3
Формат/Информация: Audio Coding 3
Расширение режима: CM (complete main)
Продолжительность: 26 м.
Вид битрейта: Постоянный
Битрейт: 448 Кбит/сек
Канал(ы): 6 канала(ов)
Расположение каналов: Front: L C R, Side: L R, LFE
Частота: 48,0 КГц
Битовая глубина: 16 бит
Метод сжатия: С потерями
Задержка видео: -80 мс.
Размер потока: 84,8 Мбайт (8%)

Меню

Поделиться:




реклама партнёра


Вернуться к началу
 Профиль Отправить личное сообщение  
 
   Похожие торренты   Автор   Торрент   Размер 
В этой теме нет новых непрочитанных сообщений. Жаркий день / Scorcher [фантастика, боевик, триллер, 2002] DVD5, Mvo

salma3

8 | 4

3.65 ГБ

В этой теме нет новых непрочитанных сообщений. Иерей-сан. Исповедь самурая (Егор Баранов) [боевик, драма, 2015] HDRip [Лицензия]

Dracon

1911 | 62

1.37 ГБ

В этой теме нет новых непрочитанных сообщений. Иерей-сан. Исповедь самурая (Егор Баранов) [боевик, драма, 2015] BDRip 720p [Лицензия]

Dracon

448 | 20

5.23 ГБ

В этой теме нет новых непрочитанных сообщений. Сестры Бэнгер / The Banger Sisters [Комедия, 2002] DVD5, Avo

salma3

1 | 3

4.32 ГБ

В этой теме нет новых непрочитанных сообщений. Спасибо, доктор Рей / Merci Docteur Rey [Чёрная комедия, 2002] DVD5, Dvo+Sub

salma3

3 | 2

3.51 ГБ

В этой теме нет новых непрочитанных сообщений. Красная сирена / La Sirene Rouge / Red Siren [криминал, 2002] DVD5, Mvo

salma3

2 | 4

4.15 ГБ

В этой теме нет новых непрочитанных сообщений. Егор Летов - Обработано на ЭВМ (punk-rock. 2014) MP3

Aleksandr.ru

14 | 4

40.56 МБ


Начать новую тему Ответить на тему  [ 1 сообщение ] 




Для Мосгорсуда, Роскомнадзора и рекламодателей:: mosgorsud-torrent[собачка]yandex.ru