Торрент файл
скачать торрент магнет ссылка Добавлен: 08 янв 2012, 22:53
Размер: 4.26 ГБ
Сидеров: 5
Личеров: 5
Автор

СообщениеДобавлено: 08 янв 2012, 22:53 

Не в сети
Супермодератор
Аватара пользователя
Дата регистрации:
11 апр 2010, 18:10
Спасибо: 5801 / 7
Сообщения: 56779
Расплата / Payback

Перевод: Профессиональный (полное дублирование)
Субтитры: Английские, русские, русские (с ненормативной лексикой, Гоблин)
Формат: DVD5, DVD Video, MPEG2, AC3
Страна: США
Режиссер: Брайан Хелгеленд, Джон Мир
Жанр: боевик, триллер, драма, криминал
Продолжительность: 01:41:16
Год выпуска: 1999

В ролях: Мэл Гибсон, Грегг Генри, Мария Белло, Дэвид Пэймер, Билл Дьюк, Дебора Кара Ангер, Джон Гловер, Уильям Дивэйн, Люси Лью, Джек Конли

Описание: Член преступного могущественного синдиката должен заплатить своим боссам 130 тыс. долларов. Поэтому он приглашает Портера на дело. Вместе с ним и его женой они грабят автомобиль, в котором азиаты перевозят «грязные» деньги. Но жене Портера подлый мафиози подсовывает фотографию мужа в объятиях проститутки, и супруга всаживает в благоверного пулю за пулей. Сочтя его мертвым, они забирают деньги и уезжают. Однако Портер не умер и через пять месяцев вернулся, чтобы расплатиться — вернуть свои деньги и отомстить.

Рейтинг IMDB: 7.0/10
Рейтинг Кинопоиск.RU: 7.993
Рейтинг MPAA: R

Видео: 720 x 480 (NTSC 16:9), 23.976 fps, MPEG-2 Video, ~ 9800kbps avg
Аудио#1:Русский 48 kHz, AC3, 6ch , ~448 kbps avg [Профессиональный (полное дублирование)]
Аудио#2:Английский 48 kHz, AC3, 6ch , ~384 kbps avg [Оригинал]
Аудио#3:Русский 48 kHz, AC3, 6ch , ~448 kbps avg [Авторский (одноголосый), (Гоблин)с ненормативной лексикой ]

Доп. информация:
Релиз содержит аудиодорожку с ненормативной лексикой
Релиз содержит субтитры с ненормативной лексикой

Общее
Полное имя: I:\[tfile.ru]\Расплата (1999)\rasplata_[tfile.ru]\VIDEO_TS\VTS_01_1.VOB
Формат: MPEG-PS
Размер файла: 1024 Мбайт
Продолжительность: 23 м.
Общий поток: 6066 Кбит/сек

Видео
Идентификатор: 224 (0xE0)
Формат: MPEG Video
Версия формата: Version 2
Профиль формата: Main@Main
Параметр BVOP формата: Да
Параметр матрицы формата: По умолчанию
Продолжительность: 23 м.
Вид битрейта: Переменный
Битрейт: 4666 Кбит/сек
Номинальный битрейт: 9800 Кбит/сек
Ширина: 720 пикс.
Высота: 480 пикс.
Соотношение сторон: 16:9
Частота кадров: 23,976 кадр/сек
Стандарт вещания: Component
Цветовое пространство: YUV
Подвыборка цветности: 4:2:0
Битовая глубина: 8 бит
Тип развёртки: Прогрессивная
Порядок развёртки: 2:3 Pulldown
Метод сжатия: С потерями
Бит/(Пиксели*Кадры): 0.563
Размер потока: 788 Мбайт (77%)

Аудио #1
Идентификатор: 128 (0x80)
Формат: AC-3
Формат/Информация: Audio Coding 3
Расширение режима: CM (complete main)
Продолжительность: 23 м.
Вид битрейта: Постоянный
Битрейт: 448 Кбит/сек
Канал(ы): 6 канала(ов)
Расположение каналов: Front: L C R, Side: L R, LFE
Частота: 48,0 КГц
Битовая глубина: 16 бит
Метод сжатия: С потерями
Размер потока: 75,6 Мбайт (7%)

Аудио #2
Идентификатор: 129 (0x81)
Формат: AC-3
Формат/Информация: Audio Coding 3
Расширение режима: CM (complete main)
Продолжительность: 23 м.
Вид битрейта: Постоянный
Битрейт: 384 Кбит/сек
Канал(ы): 6 канала(ов)
Расположение каналов: Front: L C R, Side: L R, LFE
Частота: 48,0 КГц
Битовая глубина: 16 бит
Метод сжатия: С потерями
Размер потока: 64,8 Мбайт (6%)

Аудио #3
Идентификатор: 131 (0x83)
Формат: AC-3
Формат/Информация: Audio Coding 3
Расширение режима: CM (complete main)
Продолжительность: 23 м.
Вид битрейта: Постоянный
Битрейт: 448 Кбит/сек
Канал(ы): 6 канала(ов)
Расположение каналов: Front: L C R, Side: L R, LFE
Частота: 48,0 КГц
Битовая глубина: 16 бит
Метод сжатия: С потерями
Размер потока: 75,6 Мбайт (7%)

Текст #1
Идентификатор: 224 (0xE0)-DVD-2
Формат: EIA-608
Режим смешивания: DVD-Video
Режим смешивания, доп. информаци : Muxed in Video #1
Размер потока: 0,00 байт (0%)

Текст #2
Идентификатор: 32 (0x20)
Формат: RLE
Формат/Информация: Run-length encoding

Текст #3
Идентификатор: 33 (0x21)
Формат: RLE
Формат/Информация: Run-length encoding

Текст #4
Идентификатор: 34 (0x22)
Формат: RLE
Формат/Информация: Run-length encoding

Текст #5
Идентификатор: 35 (0x23)
Формат: RLE
Формат/Информация: Run-length encoding

Меню























Поделиться:




реклама партнёра


Вернуться к началу
 Профиль Отправить личное сообщение  
 
   Похожие торренты   Автор   Торрент   Размер 
В этой теме нет новых непрочитанных сообщений. Расплата / Payback [боевик, триллер, драма, криминал, 1999] BDRip, Dub+Sub

salma3

52 | 5

1.46 ГБ

В этой теме нет новых непрочитанных сообщений. Расплата / Payback [Драма, криминал, 2007] DVDRip, Dvo+Sub

salma3

43 | 9

2.49 ГБ

В этой теме нет новых непрочитанных сообщений. Легенда / Legend (Брайан Хелгеленд) [Триллер, драма, криминал, 2015] WEBRip, dub [iTunes]

Dracon

0 | 0

1.46 ГБ

В этой теме нет новых непрочитанных сообщений. Легенда / Legend (Брайан Хелгеленд) [Триллер, драма, криминал, 2015] HDRip, dub [iTunes]

Dracon

1578 | 300

2.05 ГБ

В этой теме нет новых непрочитанных сообщений. Расплата / The Accountant ( боевик, триллер, драма, криминал, 2016) TS | D

marya111

4820 | 130

1.37 ГБ

В этой теме нет новых непрочитанных сообщений. Расплата / The Accountant [боевик, триллер, драма, криминал, 2016] WEBRip, Dub [Звук с TS]

salma3

1548 | 144

2.05 ГБ

В этой теме нет новых непрочитанных сообщений. Принц / The Prince (Брайан А. Миллер) [2014, Боевик, триллер, криминал, драма, WEB-DLRip] avo

Nickolas3435

79 | 4

748.5 МБ


Начать новую тему Ответить на тему  [ 1 сообщение ] 




Для Мосгорсуда, Роскомнадзора и рекламодателей:: mosgorsud-torrent[собачка]yandex.ru