Торрент файл
скачать торрент магнет ссылка Добавлен: 08 янв 2012, 22:52
Размер: 4.07 ГБ
Сидеров: 2
Личеров: 4
Автор

СообщениеДобавлено: 08 янв 2012, 22:52 

Не в сети
Супермодератор
Аватара пользователя
Дата регистрации:
11 апр 2010, 18:10
Спасибо: 5799 / 7
Сообщения: 56779
Зверофабрика / Animal Factory

Перевод: Профессиональный (многоголосый, закадровый)
Субтитры:Отсутствуют
Формат: DVD5, DVD Video, MPEG2, AC3
Страна: США
Режиссер: Стив Бушеми
Жанр: драма, криминал
Продолжительность: 01:30:38
Год выпуска: 2000

В ролях: Уиллем Дефо, Эдвард Ферлонг, Дэнни Трехо, Марк Бун Джуниор, Сеймур Кэссел, Микки Рурк, Том Арнольд, Джон Хёрд, Кристофер Бауэр, Рокетс Редглейр

Описание: За воротами тюрьмы нормальная жизнь заканчивается. Любой несчастный вступивший в стены этого жуткого старого здания обречен жить по чудовищным, волчьим законам, от которых законопослушный человек придет в неописуемый ужас. Здесь татуированные рецидивисты режут и калечат друг друга, устраивают кровопролитные разборки, и «берут в жены» слабаков, которые не могут за себя постоять. Здесь — твоя жизнь больше уже не стоит ничего… Именно в эту тюрьму и попадает герой картины, молодой человек по имени Рон Деккер. Если бы не счастливое стечение обстоятельств, то Деккер не «протянул» бы здесь и месяца. Но Рону повезло: его взял под защиту местный «авторитет» Эрл Коупен — уважаемый «вор в законе», человек опытный и рассудительный. Возникает удивительная дружба между «прожженным» уголовником и юношей, попавшим за решетку по воле случая. И вот эта странная парочка решает совершить побег…

Рейтинг IMDB: 6.6/10
Рейтинг Кинопоиск.RU: 6.916
Рейтинг MPAA: R

Видео: 720 x 576 (PAL 2,35:1), 25.000 fps,MPEG2 Video, ~5689 kbps avg
Аудио#1:Русский 48.0 kHz, AC3, 2 ch, Front: L R, ~192 kbps avg [Профессиональный (многоголосый, закадровый)]
Аудио#2:Английский 48.0 kHz, AC3, 2 ch, Front: L R, ~192 kbps avg [Оригинал]

Общее
Полное имя: I:\[tfile.ru]\Зверофабрика (2000)\zverofabrika_[tfile.ru]\VIDEO_TS\VTS_03_1.VOB
Формат: MPEG-PS
Размер файла: 1024 Мбайт
Продолжительность: 23 м.
Общий поток: 6196 Кбит/сек

Видео
Идентификатор: 224 (0xE0)
Формат: MPEG Video
Версия формата: Version 2
Профиль формата: Main@Main
Параметр BVOP формата: Да
Параметр матрицы формата: По умолчанию
Параметры GOP формата: M=3, N=13
Продолжительность: 23 м.
Вид битрейта: Переменный
Битрейт: 5689 Кбит/сек
Номинальный битрейт: 7800 Кбит/сек
Ширина: 720 пикс.
Высота: 576 пикс.
Соотношение сторон: 2,35:1
Частота кадров: 25,000 кадр/сек
Стандарт вещания: PAL
Цветовое пространство: YUV
Подвыборка цветности: 4:2:0
Битовая глубина: 8 бит
Тип развёртки: Чересстрочная
Порядок развёртки: Верхнее поле первое
Метод сжатия: С потерями
Бит/(Пиксели*Кадры): 0.549
Размер потока: 940 Мбайт (92%)

Аудио #1
Идентификатор: 128 (0x80)
Формат: AC-3
Формат/Информация: Audio Coding 3
Расширение режима: CM (complete main)
Продолжительность: 23 м.
Вид битрейта: Постоянный
Битрейт: 192 Кбит/сек
Канал(ы): 2 канала(ов)
Расположение каналов: Front: L R
Частота: 48,0 КГц
Битовая глубина: 16 бит
Метод сжатия: С потерями
Размер потока: 31,7 Мбайт (3%)

Аудио #2
Идентификатор: 129 (0x81)
Формат: AC-3
Формат/Информация: Audio Coding 3
Расширение режима: CM (complete main)
Продолжительность: 23 м.
Вид битрейта: Постоянный
Битрейт: 192 Кбит/сек
Канал(ы): 2 канала(ов)
Расположение каналов: Front: L R
Частота: 48,0 КГц
Битовая глубина: 16 бит
Метод сжатия: С потерями
Размер потока: 31,7 Мбайт (3%)

Меню



























Поделиться:




реклама партнёра


Вернуться к началу
 Профиль Отправить личное сообщение  
 
   Похожие торренты   Автор   Торрент   Размер 
В этой теме нет новых непрочитанных сообщений. По волчьим законам / Animal Kingdom [S01] [Драма, криминал, 2016] WEB-DLRip, Mvo [BaiBaKo]

salma3

77 | 98

6.67 ГБ

В этой теме нет новых непрочитанных сообщений. По волчьим законам / Animal Kingdom [01x01 из 10] [Драма, криминал, 2016] HDTVRip, Mvo [IdeaFilm]

salma3

26 | 1

750.16 МБ

В этой теме нет новых непрочитанных сообщений. По волчьим законам / Царство зверей / Animal Kingdom [Драма, криминал, 2010] BDRip 1080p, Mvo+Sub

salma3

43 | 15

9.95 ГБ

В этой теме нет новых непрочитанных сообщений. Animal Planet: Спасение собак / Animal Planet: The Dog Rescuers / 1 сезон: 1-10 серии из 10 [документальный, научно-познавательный, 2013] SATRip, Dvo

salma3

1 | 5

2.56 ГБ

В этой теме нет новых непрочитанных сообщений. Animal Planet: Неизведанные города. Манаус / Animal Planet: Worlds wildes city. Manaus (7 серий из 7) [документальный, 2014] SATRip, Avo

salma3

3 | 7

3.53 ГБ

В этой теме нет новых непрочитанных сообщений. Фабрика / The Factory [Триллер, криминал, детектив, 2012] ВDRip 1080р, Dvo

salma3

95 | 7

8.63 ГБ

В этой теме нет новых непрочитанных сообщений. Animal ДжаZ - Animal ДжаZ [2011, Alternative Rock, MP3]

PriZraK

0 | 1

133.18 МБ


Начать новую тему Ответить на тему  [ 1 сообщение ] 




Для Мосгорсуда, Роскомнадзора и рекламодателей:: mosgorsud-torrent[собачка]yandex.ru