Торрент файл
скачать торрент магнет ссылка Добавлен: 08 янв 2012, 22:52
Размер: 4.21 ГБ
Сидеров: 1
Личеров: 5
Автор

СообщениеДобавлено: 08 янв 2012, 22:52 

Не в сети
Супермодератор
Аватара пользователя
Дата регистрации:
11 апр 2010, 18:10
Спасибо: 5965 / 7
Сообщения: 56761
Машина для убийств/ Икарус / Icarus / The Killing Machine


Перевод: Профессиональный (многоголосый, закадровый)
Cубтитры:Русские
Формат:DVD5, DVD Video, MPEG2, AC3
Страна:США, Канада
Режиссер:Дольф Лундгрен
Жанр:боевик, триллер, драма
Продолжительность:01:28:04
Год выпуска:2010

В ролях:Дольф Лундгрен, Стефани Фон Пфеттен, Саманта Феррис, Дэвид Льюис, Линдсэй Максвелл, Джон Тенч Бо Свенсон, Кэтлин Магер, Моника Гандертон

Описание: Эдвард Дженн, в криминальном мире известный, как Икарус, в обычной жизни — преуспевающий предприниматель и любящий отец. Однако, и у таких успешных людей, как он, есть свои скелеты в шкафу, и переходить такому человеку дорогу, — обрекать себя на верную гибель. Такие люди всё же находятся, но они пока не знают, что уготовил им отчаянный Икарус, который будет бороться до конца, дабы защитить себя, свою семью, своих близких. Борьбы до победного конца не избежать…

Рейтинг IMDB: 5.2/10
Рейтинг Кинопоиск.RU: 4.681
Рейтинг MPAA: R

Видео: 720x576 (PAL 4:3), 25,000 fps, MPEG-2 Video ~ 8500 kbps avg
Аудио#1:Русский: 48 kHz, AC3 , 6ch, ~448 kbps avg[Профессиональный (многоголосый, закадровый)]
Аудио#2:Русский: 48 kHz, AC3, 2 ch, ~192 kbps avg[Профессиональный (многоголосый, закадровый)]
Аудио#3:Английский: 48 kHz, AC3, 2 ch, ~192 kbps avg[Оригинал]

Слоган:«Они не дадут ему завязать...»

Общее
Полное имя: K:\фильмы в DVD\Mashina_dlja_ubiystv\VIDEO_TS\VTS_05_1.VOB
Формат: MPEG-PS
Размер файла: 1024 Мбайт
Продолжительность: 23 м.
Общий поток: 6122 Кбит/сек

Видео
Идентификатор: 224 (0xE0)
Формат: MPEG Video
Версия формата: Version 2
Профиль формата: Main@Main
Параметр BVOP формата: Да
Параметр матрицы формата: По умолчанию
Продолжительность: 23 м.
Вид битрейта: Переменный
Битрейт: 5168 Кбит/сек
Номинальный битрейт: 8500 Кбит/сек
Ширина: 720 пикс.
Высота: 576 пикс.
Соотношение сторон: 4:3
Частота кадров: 25,000 кадр/сек
Стандарт вещания: PAL
Цветовое пространство: YUV
Подвыборка цветности: 4:2:0
Битовая глубина: 8 бит
Тип развёртки: Чересстрочная
Порядок развёртки: Верхнее поле первое
Метод сжатия: С потерями
Бит/(Пиксели*Кадры): 0.498
Размер потока: 864 Мбайт (84%)

Аудио #1
Идентификатор: 128 (0x80)
Формат: AC-3
Формат/Информация: Audio Coding 3
Расширение режима: CM (complete main)
Продолжительность: 23 м.
Вид битрейта: Постоянный
Битрейт: 448 Кбит/сек
Канал(ы): 6 канала(ов)
Расположение каналов: Front: L C R, Side: L R, LFE
Частота: 48,0 КГц
Битовая глубина: 16 бит
Метод сжатия: С потерями
Размер потока: 74,9 Мбайт (7%)

Аудио #2
Идентификатор: 129 (0x81)
Формат: AC-3
Формат/Информация: Audio Coding 3
Расширение режима: CM (complete main)
Продолжительность: 23 м.
Вид битрейта: Постоянный
Битрейт: 192 Кбит/сек
Канал(ы): 2 канала(ов)
Расположение каналов: Front: L R
Частота: 48,0 КГц
Битовая глубина: 16 бит
Метод сжатия: С потерями
Размер потока: 32,1 Мбайт (3%)

Аудио #3
Идентификатор: 130 (0x82)
Формат: AC-3
Формат/Информация: Audio Coding 3
Расширение режима: CM (complete main)
Продолжительность: 23 м.
Вид битрейта: Постоянный
Битрейт: 192 Кбит/сек
Канал(ы): 2 канала(ов)
Расположение каналов: Front: L R
Частота: 48,0 КГц
Битовая глубина: 16 бит
Метод сжатия: С потерями
Размер потока: 32,1 Мбайт (3%)

Меню

[b]







[b]













[b]Поделиться:




реклама партнёра


Вернуться к началу
 Профиль Отправить личное сообщение  
 
   Похожие торренты   Автор   Торрент   Размер 
В этой теме нет новых непрочитанных сообщений. Машина войны / War Machine [драма, комедия, военный, 2017] WEBRip, Mvo

salma3

345 | 95

1.37 ГБ

В этой теме нет новых непрочитанных сообщений. Машина войны / War Machine [драма, комедия, военный, 2017] WEB-DLRip 720p, Mvo

salma3

0 | 0

3.8 ГБ

В этой теме нет новых непрочитанных сообщений. Машина войны / War Machine [драма, комедия, военный, 2017] WEB-DLRip 1080p, Mvo

salma3

0 | 0

4.5 ГБ

В этой теме нет новых непрочитанных сообщений. Бюро убийств / The Assassination Bureau [боевик, триллер, комедия, криминал, приключения, 1969] DVD5, Mvo

salma3

0 | 3

4.36 ГБ

В этой теме нет новых непрочитанных сообщений. Машина смерти / Death Machine [Фантастика, 1994] DVD-9, Avo

salma3

75 | 13

7.55 ГБ

В этой теме нет новых непрочитанных сообщений. Jesse: Sex Machine 2 / Джесси Джейн: Секс Машина 2 (2016) WEB-DL

amadei

36 | 7

1.53 ГБ

В этой теме нет новых непрочитанных сообщений. Машина времени в джакузи 2 / Hot Tub Time Machine 2 (Стив Пинк) [фантастика, комедия, 2015] HDRip, dub [Чистый звук]

Dracon

590 | 18

1.37 ГБ


Начать новую тему Ответить на тему  [ 1 сообщение ] 




Для Мосгорсуда, Роскомнадзора и рекламодателей:: mosgorsud-torrent[собачка]yandex.ru