Торрент файл
скачать торрент магнет ссылка Добавлен: 08 янв 2012, 22:51
Размер: 4.13 ГБ
Сидеров: 0
Личеров: 4
Автор

СообщениеДобавлено: 08 янв 2012, 22:51 

Не в сети
Супермодератор
Аватара пользователя
Дата регистрации:
11 апр 2010, 18:10
Спасибо: 5798 / 7
Сообщения: 56779
Путешествие на край Земли / To the Ends of the Earth [2 часть из 2]


Перевод: Профессиональный (двухголосый)
Субтитры: Русские
Формат: DVD5, DVD Video, MPEG2, AC3
Страна: Великобритания
Режиссер: Дэвид Эттвуд
Жанр: драма
Продолжительность: 01:28:31
Год выпуска: 2005

В ролях: Денис Блэк, Бенедикт Камбербэтч, Брайан Петтифер, Виктория Хэмилтон, Дэниэл Эванс, Роберт Хоббс, Джаред Харрис, Тео Ланди, Джэми Сивз, Джей Джей Филд

Описание: В 1812 году молодой аристократ Эдмунд Талбот поднимается на борт отправляющегося в Австралию старого военного корабля, которым командует капитан Андерсон.

Эдмунд молод, наивен и мечтает о подвигах и приключениях. И его мечты сбываются, но только не совсем так, как он себе представлял. Путешествие выдается куда более головокружительным и опасным…


Рейтинг на IMDB: 7.5/10
Рейтинг КиноПоиск.RU: 8.053

Видео: 720x576 (PAL 4:3), 25,000 fps, MPEG-2 Video ~ 9800 kbps avg
Аудио #1: Русский: 48 kHz, AC3 Dolby Digital, 6 ch, 448 kbps avg [Профессиональный (двухголосый)]
Аудио #2: Английский: 48 kHz, AC3 Dolby Digital, 6 ch, 448 kbps avg [Оригинал]

Доп.информация:Meню озвученное, статичное, на русском языке, с навигацией по эпизодам. Все кнопки функциональны.


Общее
Полное имя: D:\MKV\Путешествие на край Земли.DVD-9.DVD-5\DVD2\VIDEO_TS\VTS_02_3.VOB
Формат: MPEG-PS
Размер файла: 1024 Мбайт
Продолжительность: 27 м.
Общий поток: 5156 Кбит/сек

Видео
Идентификатор: 224 (0xE0)
Формат: MPEG Video
Версия формата: Version 2
Профиль формата: Main@Main
Параметр BVOP формата: Да
Параметр матрицы формата: По умолчанию
Параметры GOP формата: M=3, N=15
Продолжительность: 27 м.
Вид битрейта: Переменный
Битрейт: 4157 Кбит/сек
Номинальный битрейт: 9800 Кбит/сек
Ширина: 720 пикс.
Высота: 576 пикс.
Соотношение сторон: 4:3
Частота кадров: 25,000 кадр/сек
Стандарт вещания: PAL
Цветовое пространство: YUV
Подвыборка цветности: 4:2:0
Битовая глубина: 8 бит
Тип развёртки: Чересстрочная
Порядок развёртки: Верхнее поле первое
Метод сжатия: С потерями
Бит/(Пиксели*Кадры): 0.401
Размер потока: 825 Мбайт (81%)

Аудио #1
Идентификатор: 128 (0x80)
Формат: AC-3
Формат/Информация: Audio Coding 3
Расширение режима: CM (complete main)
Продолжительность: 27 м.
Вид битрейта: Постоянный
Битрейт: 448 Кбит/сек
Канал(ы): 6 канала(ов)
Расположение каналов: Front: L C R, Side: L R, LFE
Частота: 48,0 КГц
Битовая глубина: 16 бит
Метод сжатия: С потерями
Задержка видео: -672 мс.
Размер потока: 89,0 Мбайт (9%)

Аудио #2
Идентификатор: 129 (0x81)
Формат: AC-3
Формат/Информация: Audio Coding 3
Расширение режима: CM (complete main)
Продолжительность: 27 м.
Вид битрейта: Постоянный
Битрейт: 448 Кбит/сек
Канал(ы): 6 канала(ов)
Расположение каналов: Front: L C R, Side: L R, LFE
Частота: 48,0 КГц
Битовая глубина: 16 бит
Метод сжатия: С потерями
Задержка видео: -672 мс.
Размер потока: 89,0 Мбайт (9%)

Текст
Идентификатор: 32 (0x20)
Формат: RLE
Формат/Информация: Run-length encoding
Задержка видео: -160 мс.















Поделиться:




реклама партнёра


Вернуться к началу
 Профиль Отправить личное сообщение  
 
   Похожие торренты   Автор   Торрент   Размер 
В этой теме нет новых непрочитанных сообщений. Последний час Земли / Earth's Final Hours [Фантастика, 2011] DVD5, Mvo [Лицензия]

salma3

41 | 14

4.01 ГБ

В этой теме нет новых непрочитанных сообщений. Philip Bardowell - To The Ends Of The Earth [2013, Melodic Rock,AOR, MP3]

PriZraK

0 | 1

134.9 МБ

В этой теме нет новых непрочитанных сообщений. Нацисты в центре Земли / Nazis at the Center of the Earth [фантастика, боевик, триллер, приключения, 2012] BDRip-AVC, Mvo

salma3

111 | 14

1.45 ГБ

В этой теме нет новых непрочитанных сообщений. Нацисты в центре Земли / Nazis at the Center of the Earth [фантастика, боевик, триллер, приключения, 2012] BDRemux 1080p, Mvo

salma3

116 | 41

10.89 ГБ

В этой теме нет новых непрочитанных сообщений. Нацисты в центре Земли / Nazis at the Center of the Earth [фантастика, боевик, триллер, приключения, 2012] BDRip 720p, Mvo

salma3

35 | 4

3.93 ГБ

В этой теме нет новых непрочитанных сообщений. Дэвид Бекхэм. Путешествие в неизведанное / David Beckham. Into The Unknown [Документальный, Спорт, Путешествия и Туризм, 2014] HDTVRip, Mvo

Dracon

2 | 2

1.46 ГБ

В этой теме нет новых непрочитанных сообщений. Dawn Of Relic - Night On Earth [2005, Melodic Death Metal, MP3]

PriZraK

0 | 1

68.67 МБ


Начать новую тему Ответить на тему  [ 1 сообщение ] 




Для Мосгорсуда, Роскомнадзора и рекламодателей:: mosgorsud-torrent[собачка]yandex.ru