Торрент файл
скачать торрент магнет ссылка Добавлен: 08 янв 2012, 22:50
Размер: 4.14 ГБ
Сидеров: 1
Личеров: 6
Автор

СообщениеДобавлено: 08 янв 2012, 22:50 

Не в сети
Супермодератор
Аватара пользователя
Дата регистрации:
11 апр 2010, 18:10
Спасибо: 5801 / 7
Сообщения: 56779
Хранители огня / Under the Mountain


Перевод: Профессиональный (многоголосый, закадровый)
Cубтитры:русские
Формат: DVD5, DVD Video, MPEG2, AC3
Страна: Новая Зеландия
Режиссер: Джонатан Кинг
Жанр: фэнтези, драма, приключения
Продолжительность: 01:26:28
Год выпуска: 2009

В ролях: Сэм Нилл, Том Камерон, Мэттью Чемберлен, Оливер Драйвер, Мэтт Джилландерс, Брюс Хопкинс, Билл Джонсон, Нэтаниэл Лис, Софи МакБрайд, Челси МакЭван-Миллер

Описание: Захватывающие приключения, непредсказуемый сюжет и зловещие тайны ждут зрителей в новом фильме фэнтези "Хранители огня" режиссера Джонатана Кинга. Тео и Рейчел близнецы, обладающие сверхъестественными способностями. Потеряв мать, они оказываются у родственников, живущих рядом со спящим вулканом. Здесь близнецы знакомятся с Мистером Джонсом, который оказывается магом огня. Он уже много веков ищет воинов, способных овладеть древним оружием, с помощью которого можно подчинить силу огня. Его цель - уничтожить драконов, заточенных в недрах вулканов. Эти огромные исполины, плененные несколько столетии назад, готовы в любой момент вырваться из темницы и поработить землю...

Рейтинг на IMDB:4.9 / 10
Рейтинг на КиноПоиск.RU:4.15
Рейтинг на MPAA:PG-13

Видео: 720x576 (16:9), 25,000 кадр/сек, MPEG2 Video, ~5819 Кбит/сек
Аудио#1:Русский 48,0 КГц, Dolby AC3, 6 ch, ~384 Кбит/сек [Профессиональный (многоголосый, закадровый)]
Аудио#2:Русский48,0 КГц, Dolby AC3, 2 ch, ~192 Кбит/сек, [Профессиональный (многоголосый, закадровый)]
Аудио#3:Английский 48,0 КГц, Dolby AC3, 2 ch, ~192 Кбит/сек [Оригинал]

Общее
Полное имя: C:\Documents and Settings\Admin.MICROSOF-68219C\Мои документы\Загрузки\Hraniteli_ognya\VIDEO_TS\VTS_02_1.VOB
Формат: MPEG-PS
Размер файла: 1024 Мбайт
Продолжительность: 21 м.
Общий поток: 6721 Кбит/сек

Видео
Идентификатор: 224 (0xE0)
Формат: MPEG Video
Версия формата: Version 2
Профиль формата: Main@Main
Параметр BVOP формата: Да
Параметр матрицы формата: По умолчанию
Продолжительность: 21 м.
Вид битрейта: Переменный
Битрейт: 5819 Кбит/сек
Номинальный битрейт: 8000 Кбит/сек
Ширина: 720 пикс.
Высота: 576 пикс.
Соотношение сторон: 16:9
Частота кадров: 25,000 кадр/сек
Стандарт вещания: PAL
Цветовое пространство: YUV
Подвыборка цветности: 4:2:0
Битовая глубина: 8 бит
Тип развёртки: Чересстрочная
Порядок развёртки: Верхнее поле первое
Метод сжатия: С потерями
Бит/(Пиксели*Кадры): 0.561
Размер потока: 886 Мбайт (87%)

Аудио #1
Идентификатор: 128 (0x80)
Формат: AC-3
Формат/Информация: Audio Coding 3
Расширение режима: CM (complete main)
Продолжительность: 21 м.
Вид битрейта: Постоянный
Битрейт: 384 Кбит/сек
Канал(ы): 6 канала(ов)
Расположение каналов: Front: L C R, Side: L R, LFE
Частота: 48,0 КГц
Битовая глубина: 16 бит
Метод сжатия: С потерями
Размер потока: 58,5 Мбайт (6%)

Аудио #2
Идентификатор: 129 (0x81)
Формат: AC-3
Формат/Информация: Audio Coding 3
Расширение режима: CM (complete main)
Продолжительность: 21 м.
Вид битрейта: Постоянный
Битрейт: 192 Кбит/сек
Канал(ы): 2 канала(ов)
Расположение каналов: Front: L R
Частота: 48,0 КГц
Битовая глубина: 16 бит
Метод сжатия: С потерями
Размер потока: 29,2 Мбайт (3%)

Аудио #3
Идентификатор: 130 (0x82)
Формат: AC-3
Формат/Информация: Audio Coding 3
Расширение режима: CM (complete main)
Продолжительность: 21 м.
Вид битрейта: Постоянный
Битрейт: 192 Кбит/сек
Канал(ы): 2 канала(ов)
Расположение каналов: Front: L R
Частота: 48,0 КГц
Битовая глубина: 16 бит
Метод сжатия: С потерями
Размер потока: 29,2 Мбайт (3%)









Поделиться:




реклама партнёра


Вернуться к началу
 Профиль Отправить личное сообщение  
 
   Похожие торренты   Автор   Торрент   Размер 
В этой теме нет новых непрочитанных сообщений. Приключения Паддингтона / Paddington (Пол Кинг) [комедия, семейный, 2014] DVD5, Dub [лицензия]

Dracon

58 | 6

4.37 ГБ

В этой теме нет новых непрочитанных сообщений. Побег на Ведьмину гору / Escape to Witch Mountain [фантастика, фэнтези, приключения, семейный, 1975] HDTVRip, Mvo

salma3

5 | 2

1.45 ГБ

В этой теме нет новых непрочитанных сообщений. Дьявольская гора / Sasquatch Mountain / Devil on the Mountain [фантастика, 2006] DVDRip, Dvo

salma3

5 | 4

1.47 ГБ

В этой теме нет новых непрочитанных сообщений. Черепашки-ниндзя / Teenage Mutant Ninja Turtles (Джонатан Либесман) [2014, фантастика, фэнтези, боевик, комедия, приключения, CAMRip|*PROPER*] Dub

Nickolas3435

2835 | 149

1.46 ГБ

В этой теме нет новых непрочитанных сообщений. Хроники Шаннары / The Shannara Chronicles [01х01-04 из 10] (Брэд Тернер, Джонатан Либесман, Джеймс Маршалл) [2016, фантастика, фэнтези, приключения, WEB-DLRip | HamsterStudio]

Nickolas3434

860 | 564

1.56 ГБ

В этой теме нет новых непрочитанных сообщений. Тихая гора / The Silent Mountain [драма, мелодрама, приключения, военный, 2014] HDRip [ИндивИдуалист]

Dracon

581 | 27

1.4 ГБ

В этой теме нет новых непрочитанных сообщений. Хроники Шаннары / The Shannara Chronicles / 1 сезон 1-10 серии из 10 (Брэд Тернер, Джонатан Либесман, Джеймс Маршалл) [фантастика, фэнтези, приключения, 2016] WEB-DLRip [BaibaKo]

Dracon

275 | 522

5.49 ГБ


Начать новую тему Ответить на тему  [ 1 сообщение ] 




Для Мосгорсуда, Роскомнадзора и рекламодателей:: mosgorsud-torrent[собачка]yandex.ru