Торрент файл
скачать торрент магнет ссылка Добавлен: 08 янв 2012, 22:50
Размер: 3.4 ГБ
Сидеров: 2
Личеров: 4
Автор

СообщениеДобавлено: 08 янв 2012, 22:50 

Не в сети
Супермодератор
Аватара пользователя
Дата регистрации:
11 апр 2010, 18:10
Спасибо: 5802 / 7
Сообщения: 56779
Матильда / Matilda

Перевод: Профессиональный (полное дублирование)
Субтитры: Русские
Формат: DVD5, DVD Video, MPEG2, AC3
Страна: США
Режиссер: Дэнни ДеВито
Жанр: фэнтези, драма, комедия, семейный
Продолжительность: 01:34:11
Год выпуска: 1996

В ролях: Мара Уилсон, Дэнни ДеВито, Реа Перлман, Эмбет Дэвидц, Пэм Феррис, Пол Рубенс, Трейси Уолтер, Брайан Левинсон

Описание: Матильда — очень необычная девочка. Ну посудите сами — умножать в голове огромные цифры, двигать взглядом предметы, и делать еще много чего сверхъестественного — это что, по-вашему, нормально? Но ее родители равнодушны к ней — их не только не поражают способности Матильды, им даже не интересно как живет их дочь. Все, чего хотят «сердобольные» мама с папой — избавиться от нее. Так они и поступают — отправляют девочку в интернат. Вот там-то Матильда и начинает давать волю своим поразительным талантам. А умеет она выкидывать такие номера, что поверьте, мало не покажется.

Рейтинг IMDB: 6.6/10
Рейтинг Кинопоиск.RU: 7.569
Рейтинг MPAA: PG

Видео: 720x576 (PAL 16:9), 25.00fps, MPEG2 Video, ~4214 kbps avg
Audio #1:Русский: 48.0 kHz, AC3, 2 ch, Front: L R, ~192 kbps avg [Профессиональный (многоголосый, закадровый)]
Audio #2:Английский: 48.0 kHz, AC3, 6 ch, Front: L C R, Side: L R, LFE, ~384 kbps avg [Оригинал]
Audio #3:Русский: 48.0 kHz, AC3, 6 ch, Front: L C R, Side: L R, LFE, ~384 kbps avg [Профессиональный (полное дублирование)]

Доп. информация:

Полное имя: I:\[tfile.ru]\Матильда (1996)\matilda_[tfile.ru]\VIDEO_TS\VTS_01_1.VOB
Формат: MPEG-PS
Размер файла: 1024 Мбайт
Продолжительность: 27 м.
Общий поток: 5279 Кбит/сек

Видео
Идентификатор: 224 (0xE0)
Формат: MPEG Video
Версия формата: Version 2
Профиль формата: Main@Main
Параметр BVOP формата: Да
Параметр матрицы формата: По умолчанию
Продолжительность: 27 м.
Вид битрейта: Переменный
Битрейт: 4214 Кбит/сек
Номинальный битрейт: 9800 Кбит/сек
Ширина: 720 пикс.
Высота: 576 пикс.
Соотношение сторон: 16:9
Частота кадров: 25,000 кадр/сек
Стандарт вещания: PAL
Цветовое пространство: YUV
Подвыборка цветности: 4:2:0
Битовая глубина: 8 бит
Тип развёртки: Чересстрочная
Порядок развёртки: Верхнее поле первое
Метод сжатия: С потерями
Бит/(Пиксели*Кадры): 0.406
Размер потока: 817 Мбайт (80%)

Аудио #1
Идентификатор: 128 (0x80)
Формат: AC-3
Формат/Информация: Audio Coding 3
Профиль формата: Dolby Digital
Расширение режима: CM (complete main)
Продолжительность: 27 м.
Вид битрейта: Постоянный
Битрейт: 192 Кбит/сек
Канал(ы): 2 канала(ов)
Расположение каналов: Front: L R
Частота: 48,0 КГц
Битовая глубина: 16 бит
Метод сжатия: С потерями
Размер потока: 37,2 Мбайт (4%)

Аудио #2
Идентификатор: 129 (0x81)
Формат: AC-3
Формат/Информация: Audio Coding 3
Расширение режима: CM (complete main)
Продолжительность: 27 м.
Вид битрейта: Постоянный
Битрейт: 384 Кбит/сек
Канал(ы): 6 канала(ов)
Расположение каналов: Front: L C R, Side: L R, LFE
Частота: 48,0 КГц
Битовая глубина: 16 бит
Метод сжатия: С потерями
Размер потока: 74,5 Мбайт (7%)

Аудио #3
Идентификатор: 130 (0x82)
Формат: AC-3
Формат/Информация: Audio Coding 3
Расширение режима: CM (complete main)
Продолжительность: 27 м.
Вид битрейта: Постоянный
Битрейт: 384 Кбит/сек
Канал(ы): 6 канала(ов)
Расположение каналов: Front: L C R, Side: L R, LFE
Частота: 48,0 КГц
Битовая глубина: 16 бит
Метод сжатия: С потерями
Размер потока: 74,5 Мбайт (7%)

Текст #1
Идентификатор: 32 (0x20)
Формат: RLE
Формат/Информация: Run-length encoding

Текст #2
Идентификатор: 33 (0x21)
Формат: RLE
Формат/Информация: Run-length encoding

Меню























Поделиться:




реклама партнёра


Вернуться к началу
 Профиль Отправить личное сообщение  
 
   Похожие торренты   Автор   Торрент   Размер 
В этой теме нет новых непрочитанных сообщений. Подарок на Рождество / Jingle All The Way [Детский, комедия, семейный, 1996] DVD5, Mvo [Лицензия]

salma3

21 | 7

4.24 ГБ

В этой теме нет новых непрочитанных сообщений. Флюк / Fluke [фэнтези, драма, семейный, 1995] DVD5, Dub+Sub

salma3

8 | 5

4.04 ГБ

В этой теме нет новых непрочитанных сообщений. Дом / Home (Тим Джонсон) [мультфильм, фантастика, фэнтези, комедия, приключения, семейный, 2015] DVD5, Dub+Sub [Лицензия]

Dracon

3 | 0

4.36 ГБ

В этой теме нет новых непрочитанных сообщений. Галгамет / Galgameth [фэнтези, приключения, семейный, 1996] DVDRip, Mvo

salma3

37 | 5

1.37 ГБ

В этой теме нет новых непрочитанных сообщений. Галгамет / Galgamet [Фэнтези, приключения, семейный, детский, 1996] DVDRip, Dvo+Avo

salma3

44 | 6

1.59 ГБ

В этой теме нет новых непрочитанных сообщений. Ночь в музее: Секрет гробницы / Night at the Museum: Secret of the Tomb (Шон Леви) [Фэнтези, комедия, приключения, семейный, 2015] DVD5, Dub+Sub [iTunes]

Dracon

58 | 4

4.33 ГБ

В этой теме нет новых непрочитанных сообщений. Джеймс и гигантский персик / James and the Giant Peach [Мюзикл, фэнтези, приключения, семейный, 1996] BDRip 1080p, 2Mvo+Sub

salma3

18 | 5

9.18 ГБ


Начать новую тему Ответить на тему  [ 1 сообщение ] 




Для Мосгорсуда, Роскомнадзора и рекламодателей:: mosgorsud-torrent[собачка]yandex.ru