Торрент файл
скачать торрент магнет ссылка Добавлен: 08 янв 2012, 22:50
Размер: 3.73 ГБ
Сидеров: 3
Личеров: 4
Автор

СообщениеДобавлено: 08 янв 2012, 22:50 

Не в сети
Супермодератор
Аватара пользователя
Дата регистрации:
11 апр 2010, 18:10
Спасибо: 5802 / 7
Сообщения: 56779
Объятие вампира / Embrace of the Vampire


Перевод: Авторский (одноголосый)(С. Визгунов)
Субтитры: Английские
Формат: DVD5, DVD Video, MPEG2, AC3
Страна: США
Режиссер: Энн Гурсо
Жанр: ужасы, триллер
Продолжительность: 01:32:25
Год выпуска: 1995

В ролях: Алисса Милано, Мартин Кемп, Хэррисон Прюитт, Джордан Лэдд, Рэйчел Тру, Шарлотта Льюис

Описание: Чтобы не уснуть вечным сном, у вампира есть три дня на то, чтобы соблазнить и заполучить душу юной девственницы Шарлотты. К сожалению у Шарлотты уже имеется приятель, поэтому вампир решает действовать через сны девушки.

Рейтинг на IMDB: 4.1/10
Рейтинг МРАА: R
Рейтинг КиноПоиск.RU: 5.068

Видео: 720x480 (NTSC 16:9), 23,976 fps, MPEG-2 Video ~ 9002 kbps avg
Аудио #1: Русский: 48 kHz, AC3 Dolby Digital, 2 ch, 192 kbps avg [Авторский (одноголосый)]
Аудио #2: Английский: 48 kHz, AC3 Dolby Digital, 6 ch, 448 kbps avg [Оригинал]

Слоган: «Между невиновностью и злом находится соблазнение.»


Общее
Полное имя: D:\ Объятие вампира\VIDEO_TS\VTS_03_2.VOB
Формат: MPEG-PS
Размер файла: 1024 Мбайт
Продолжительность: 23 м.
Общий поток: 5967 Кбит/сек

Видео
Идентификатор: 224 (0xE0)
Формат: MPEG Video
Версия формата: Version 2
Профиль формата: Main@Main
Параметр BVOP формата: Да
Параметр матрицы формата: По умолчанию
Параметры GOP формата: M=3, N=12
Продолжительность: 23 м.
Вид битрейта: Переменный
Битрейт: 5209 Кбит/сек
Номинальный битрейт: 9002 Кбит/сек
Ширина: 720 пикс.
Высота: 480 пикс.
Соотношение сторон: 16:9
Частота кадров: 23,976 кадр/сек
Стандарт вещания: NTSC
Цветовое пространство: YUV
Подвыборка цветности: 4:2:0
Битовая глубина: 8 бит
Тип развёртки: Прогрессивная
Порядок развёртки: 2:3 Pulldown
Метод сжатия: С потерями
Бит/(Пиксели*Кадры): 0.629
Размер потока: 893 Мбайт (87%)

Аудио #1
Идентификатор: 128 (0x80)
Формат: AC-3
Формат/Информация: Audio Coding 3
Расширение режима: CM (complete main)
Продолжительность: 23 м.
Вид битрейта: Постоянный
Битрейт: 192 Кбит/сек
Канал(ы): 2 канала(ов)
Расположение каналов: Front: L R
Частота: 48,0 КГц
Битовая глубина: 16 бит
Метод сжатия: С потерями
Задержка видео: -380 мс.
Размер потока: 32,9 Мбайт (3%)

Аудио #2
Идентификатор: 129 (0x81)
Формат: AC-3
Формат/Информация: Audio Coding 3
Расширение режима: CM (complete main)
Продолжительность: 23 м.
Вид битрейта: Постоянный
Битрейт: 448 Кбит/сек
Канал(ы): 6 канала(ов)
Расположение каналов: Front: L C R, Side: L R, LFE
Частота: 48,0 КГц
Битовая глубина: 16 бит
Метод сжатия: С потерями
Задержка видео: -412 мс.
Размер потока: 76,9 Мбайт (8%)

Текст #1
Идентификатор: 32 (0x20)
Формат: RLE
Формат/Информация: Run-length encoding
Задержка видео: 300 мс.

Текст #2
Идентификатор: 224 (0xE0)-DVD-2
Формат: EIA-608
Режим смешивания: DVD-Video
Режим смешивания, доп. информаци : Muxed in Video #1
Размер потока: 0,00 байт (0%)



















Поделиться:




реклама партнёра


Вернуться к началу
 Профиль Отправить личное сообщение  
 
   Похожие торренты   Автор   Торрент   Размер 
В этой теме нет новых непрочитанных сообщений. Объятие вампира / Embrace of the Vampire [ужасы, триллер, 1995] BDRip, Avo

salma3

3 | 48

1.45 ГБ

В этой теме нет новых непрочитанных сообщений. Объятия вампира / Embrace Of The Vampire [Ужасы, 2013] HDRip, Avo

salma3

65 | 4

1.43 ГБ

В этой теме нет новых непрочитанных сообщений. Объятия вампира / Embrace Of The Vampire (Карл Бессай) [Ужасы, 2013] HDRip, Mvo [iTunes]

Dracon

243 | 11

1.37 ГБ

В этой теме нет новых непрочитанных сообщений. Объятия вампира / Embrace Of The Vampire (Карл Бессай) [Ужасы, 2013] BDRip 1080p, Mvo [iTunes Russia]

Dracon

12 | 12

6.8 ГБ

В этой теме нет новых непрочитанных сообщений. Объятия вампира / Embrace Of The Vampire (Карл Бессай) [Ужасы, 2013] BDRip 720p, Mvo [iTunes Russia]

Dracon

97 | 11

4.61 ГБ

В этой теме нет новых непрочитанных сообщений. Последнее объятие / Last Embrace [триллер, 1979] BDRip, Dvo [НТВ+]

salma3

23 | 4

1.46 ГБ

В этой теме нет новых непрочитанных сообщений. Портрет вампира / Frost: Portrait of a vampire [ужасы, триллер, 2003] SATRip, Mvo

salma3

19 | 5

1.09 ГБ


Начать новую тему Ответить на тему  [ 1 сообщение ] 




Для Мосгорсуда, Роскомнадзора и рекламодателей:: mosgorsud-torrent[собачка]yandex.ru