Торрент файл
скачать торрент магнет ссылка Добавлен: 08 янв 2012, 22:50
Размер: 4.14 ГБ
Сидеров: 1
Личеров: 4
Автор

СообщениеДобавлено: 08 янв 2012, 22:50 

Не в сети
Супермодератор
Аватара пользователя
Дата регистрации:
11 апр 2010, 18:10
Спасибо: 5888 / 7
Сообщения: 56778
Терапия любовью


Перевод: Не требуется
Субтитры: Отсутвуют
Формат: DVD5, DVD Video, MPEG2, AC3
Страна: Россия
Режиссер: Владимир Басов мл., Ольга Басова
Жанр: мелодрама
Продолжительность: 01:36:58
Год выпуска: 2010

В ролях: Елена Дробышева, Полина Филоненко, Анатолий Лобоцкий, Иван Мудров, Владимир Басов мл., Екатерина Радченко, Елена Густова

Описание: Нина разведена и одна воспитывает дочь Юлю, которая уже достаточно взрослая, чтобы понимать, что мать посвятила всю свою жизнь только ей. Хотя дочь уже выросла, отношения в семье остаются доверительными, и женщины ничего не утаивают друг от друга.

Пытаясь хоть как-то разнообразить свою жизнь, Нина записывается в секцию йоги, где знакомится с Евгением, красавцем и преуспевающим бизнесменом. Вскоре между ними начинается роман. Конечно, мать рассказывает дочери об этом, делясь своей радостью.

Но Женя почему-то против официального брака с Ниной. Узнав об этом, Юля подозревает, что он живет двойной жизнью, и решает вывести его на чистую воду. Выследив Евгения, Юля выясняет, в чем дело. Но правда оказывается слишком неожиданной для нее.


Рейтинг КиноПоиск.RU: 6.056

Видео: 720x576 (PAL 4:3), 25,000 fps, MPEG-2 Video ~ 9000 kbps avg
Аудио: Русский: 48 kHz, AC3 Dolby Digital, 2 ch, 192 kbps avg

Доп.информация: [ Лицензионное издание "Флагман Трейд"]
Meню озвученное, статичное, на русском языке, с навигацией по эпизодам. Все кнопки функциональны.


Общее
Полное имя: D:\DVD\Терапия любовью\VIDEO_TS\VTS_01_2.VOB
Формат: MPEG-PS
Размер файла: 1024 Мбайт
Продолжительность: 24 м.
Общий поток: 5913 Кбит/сек

Видео
Идентификатор: 224 (0xE0)
Формат: MPEG Video
Версия формата: Version 2
Профиль формата: Main@Main
Параметр BVOP формата: Да
Параметр матрицы формата: По умолчанию
Параметры GOP формата: M=3, N=15
Продолжительность: 24 м.
Вид битрейта: Переменный
Битрейт: 5604 Кбит/сек
Номинальный битрейт: 9000 Кбит/сек
Ширина: 720 пикс.
Высота: 576 пикс.
Соотношение сторон: 4:3
Частота кадров: 25,000 кадр/сек
Стандарт вещания: PAL
Цветовое пространство: YUV
Подвыборка цветности: 4:2:0
Битовая глубина: 8 бит
Тип развёртки: Чересстрочная
Порядок развёртки: Нижнее поле первое
Метод сжатия: С потерями
Бит/(Пиксели*Кадры): 0.540
Размер потока: 970 Мбайт (95%)

Аудио
Идентификатор: 128 (0x80)
Формат: AC-3
Формат/Информация: Audio Coding 3
Расширение режима: CM (complete main)
Продолжительность: 24 м.
Вид битрейта: Постоянный
Битрейт: 192 Кбит/сек
Канал(ы): 2 канала(ов)
Расположение каналов: Front: L R
Частота: 48,0 КГц
Битовая глубина: 16 бит
Метод сжатия: С потерями
Задержка видео: -176 мс.
Размер потока: 33,2 Мбайт (3%)















Поделиться:




реклама партнёра


Вернуться к началу
 Профиль Отправить личное сообщение  
 
   Похожие торренты   Автор   Торрент   Размер 
В этой теме нет новых непрочитанных сообщений. С любовью, Рози / Love, Rosie С любовью, Рози / Love, Rosie (Кристиан Диттер) [мелодрама, комедия, 2015] HDRip, avo

Dracon

4 | 2

1.37 ГБ

В этой теме нет новых непрочитанных сообщений. Из Сибири с любовью [01-04 из 04] ( Мелодрама, 2016) WEB-DLRip-AVC от Files-x

marya111

0 | 0

2.21 ГБ

В этой теме нет новых непрочитанных сообщений. Из Сибири с любовью [01-04 из 04] (Мелодрама, 2016) WEB-DLRip от Files-x

marya111

0 | 0

2.14 ГБ

В этой теме нет новых непрочитанных сообщений. Между любовью и ненавистью [01-08 из 08] [Мелодрама, 2016] SATRip-AVC

salma3

70 | 16

4.3 ГБ

В этой теме нет новых непрочитанных сообщений. Из Сибири с любовью (1-4 серии из 4) [мелодрама, 2016] WEB-DL 720p

salma3

457 | 102

3.39 ГБ

В этой теме нет новых непрочитанных сообщений. Как заниматься любовью по-английски (Том Вон) [мелодрама, комедия, 2014] WEB-DLRip, Dub

Dracon

239 | 10

1.46 ГБ

В этой теме нет новых непрочитанных сообщений. Между любовью и ненавистью [01-08 из 08] (Мелодрама, 2016) SATRip от Files-x

marya111

479 | 122

4.69 ГБ


Начать новую тему Ответить на тему  [ 1 сообщение ] 




Для Мосгорсуда, Роскомнадзора и рекламодателей:: mosgorsud-torrent[собачка]yandex.ru