Торрент файл
скачать торрент магнет ссылка Добавлен: 08 янв 2012, 22:50
Размер: 4.37 ГБ
Сидеров: 3
Личеров: 5
Автор

СообщениеДобавлено: 08 янв 2012, 22:50 

Не в сети
Супермодератор
Аватара пользователя
Дата регистрации:
11 апр 2010, 18:10
Спасибо: 5802 / 7
Сообщения: 56779
Я ненавижу день Святого Валентина / I Hate Valentine's Day


Перевод: Профессиональный (полное дублирование)
Cубтитры:русские, украинские
Формат: DVD5, DVD Video, MPEG2, AC3
Страна: США
Режиссер: Ниа Вардалос
Жанр: мелодрама, комедия
Продолжительность: 01:25:37
Год выпуска: 2009

В ролях: Ниа Вардалос, Джон Корбетт, Стефен Джуарино, Амир Арисон, Зои Кэзан, Гари Уилмс, Майк Старр, Джейсон Манцукас, Джуда Фридлендер, Рэйчел Дрэч

Описание: Девушка-флорист хочет, чтобы ее пригласил на свидание владелец ресторана. Но с таким условием, чтобы их встречи не переросли в серьезные взаимоотношения.

Рейтинг на IMDB:4.6/10
Рейтинг КиноПоиск.RU: 5.306
Рейтинг MPAA:PG-13

Видео: 720x576 (PAL 4:3), 25,000 кадр/сек, MPEG2 Video, ~8500 Кбит/сек
Аудио#1:Русский 48,0 КГц,AC3, 6 ch, ~384 Kbps [Профессиональный (полное дублирование)
Аудио#2:Английский 48,0 КГц, AC3, 6 ch, ~384 Kbps [Оригинал]

Общее
Полное имя: C:\Documents and Settings\Admin.MICROSOF-68219C\Мои документы\Загрузки\Я ненавижу день Святого Валентина\VTS_08_2.VOB
Формат: MPEG-PS
Размер файла: 1024 Мбайт
Продолжительность: 24 м.
Общий поток: 5787 Кбит/сек

Видео
Идентификатор: 224 (0xE0)
Формат: MPEG Video
Версия формата: Version 2
Профиль формата: Main@Main
Параметр BVOP формата: Да
Параметр матрицы формата: По умолчанию
Параметры GOP формата: M=3, N=12
Продолжительность: 24 м.
Вид битрейта: Переменный
Битрейт: 4904 Кбит/сек
Номинальный битрейт: 8500 Кбит/сек
Ширина: 720 пикс.
Высота: 576 пикс.
Соотношение сторон: 4:3
Частота кадров: 25,000 кадр/сек
Стандарт вещания: PAL
Цветовое пространство: YUV
Подвыборка цветности: 4:2:0
Битовая глубина: 8 бит
Тип развёртки: Чересстрочная
Порядок развёртки: Нижнее поле первое
Метод сжатия: С потерями
Бит/(Пиксели*Кадры): 0.473
Размер потока: 867 Мбайт (85%)

Аудио #1
Идентификатор: 128 (0x80)
Формат: AC-3
Формат/Информация: Audio Coding 3
Расширение режима: CM (complete main)
Продолжительность: 24 м.
Вид битрейта: Постоянный
Битрейт: 384 Кбит/сек
Канал(ы): 6 канала(ов)
Расположение каналов: Front: L C R, Side: L R, LFE
Частота: 48,0 КГц
Битовая глубина: 16 бит
Метод сжатия: С потерями
Задержка видео: -560 мс.
Размер потока: 67,9 Мбайт (7%)

Аудио #2
Идентификатор: 129 (0x81)
Формат: AC-3
Формат/Информация: Audio Coding 3
Расширение режима: CM (complete main)
Продолжительность: 24 м.
Вид битрейта: Постоянный
Битрейт: 384 Кбит/сек
Канал(ы): 6 канала(ов)
Расположение каналов: Front: L C R, Side: L R, LFE
Частота: 48,0 КГц
Битовая глубина: 16 бит
Метод сжатия: С потерями
Задержка видео: -560 мс.
Размер потока: 67,9 Мбайт (7%)







Поделиться:




реклама партнёра


Вернуться к началу
 Профиль Отправить личное сообщение  
 
   Похожие торренты   Автор   Торрент   Размер 
В этой теме нет новых непрочитанных сообщений. Я ненавижу день Святого Валентина / Odeio o Dia dos Namorados [мелодрама, комедия, 2013] DVDRip, Mvo

salma3

138 | 11

1.46 ГБ

В этой теме нет новых непрочитанных сообщений. День святого Валентина / Valentine's Day [боевик, триллер, драма, мелодрама, 1998] VODRip, Mvo

salma3

2 | 3

1.44 ГБ

В этой теме нет новых непрочитанных сообщений. День Святого Валентина / Valentine [ужасы, триллер, 2001] WEB-DL 720p, Dub

salma3

20 | 0

3.23 ГБ

В этой теме нет новых непрочитанных сообщений. Я так ненавижу свою работу / I Really Hate My Job [Комедия, драма, 2007] DVDRip-AVC, Avo

salma3

155 | 45

697.8 МБ

В этой теме нет новых непрочитанных сообщений. Такой вот неизвестный, но ломовой приём - 2 ("Бойня в день Святого Валентина") (Алексей Меняйлов) [2014, документальный, криминал.WEBRip]

vairgin

9 | 6

291.46 МБ

В этой теме нет новых непрочитанных сообщений. Ненавижу и люблю [Серии 1-4 из 4] (Глеб Якубовский) [Мелодрама, 2015] SATRip

Dracon

9 | 3

2.21 ГБ

В этой теме нет новых непрочитанных сообщений. Ненавижу и люблю [01-02 из 02] (Глеб Якубовский) [Мелодрама, 2015] HDTV 1080i

Dracon

55 | 15

11.44 ГБ


Начать новую тему Ответить на тему  [ 1 сообщение ] 




Для Мосгорсуда, Роскомнадзора и рекламодателей:: mosgorsud-torrent[собачка]yandex.ru