Торрент файл
скачать торрент магнет ссылка Добавлен: 08 янв 2012, 22:50
Размер: 4.37 ГБ
Сидеров: 0
Личеров: 6
Автор

СообщениеДобавлено: 08 янв 2012, 22:50 

Не в сети
Супермодератор
Аватара пользователя
Дата регистрации:
11 апр 2010, 18:10
Спасибо: 5960 / 7
Сообщения: 56765
Не вижу зла / See No Evil

Перевод: Профессиональный (полное дублирование)
Субтитры: Русские
Формат: DVD5, DVD Video, MPEG2, AC3
Страна: США
Режиссер: Грегори Дарк
Жанр: ужасы, триллер
Продолжительность: 01:20:35
Год выпуска: 2006

В ролях: Глен Джейкобс, Кристина Видал, Майкл Дж. Паган, Саманта Ноубл, Стивен Видлер, Сесиль Полсон, Люк Пеглер, Рэйчел Тейлор, Пенни МакНэми, Крэйг Хорнер

Описание: В заброшенном, обветшалом отеле обитает психопат-отшельник Джекоб Гуднайт, в череп которого вставлена стальная пластина. Этот двухметровый верзила весом 180 кг вырывает глаза своим жертвам острыми, как бритва, ногтями… Однажды в жилище Джекоба вторгаются восемь юных правонарушителей, отправленных приводить в порядок эту богом забытую гостиницу; за ними присматривает полицейский, который четыре года назад пустил Джекобу пулю в лоб. Когда же маньяк похищает девушку, входившую в состав группы, и ее жизнь оказывается под угрозой, остальным ребятам приходится приложить все свои силы для борьбы с неуязвимым злодеем…

Рейтинг IMDB: 5.0/10
Рейтинг Кинопоиск.RU: 5.621
Рейтинг MPAA: R

Видео: 720x576 (PAL 16:9), 25.00fps, MPEG2 Video, ~9800 kbps avg
Аудио#1:Русский 48.0 kHz, AC3, 6ch, Front: L C R, Side: L R, LFE, ~384 kbps avg[Профессиональный (полное дублирование)]
Аудио#2:Английский 48.0 kHz, 6ch, Front: L C R, Side: L R, LFE, ~384 kbps avg[Оригинал]
Аудио#3:Русский 48.0 kHz, DTS, 6ch, Front: L C R, Side: L R, LFE, ~755 kbps avg [Профессиональный (полное дублирование)]


Общее
Полное имя: I:\[tfile.ru]\Не вижу зла (2006)\ne_viju_zla_[tfile.ru]\VIDEO_TS\VTS_11_1.VOB
Формат: MPEG-PS
Размер файла: 1024 Мбайт
Продолжительность: 19 м.
Общий поток: 7263 Кбит/сек

Видео
Идентификатор: 224 (0xE0)
Формат: MPEG Video
Версия формата: Version 2
Профиль формата: Main@Main
Параметр BVOP формата: Да
Параметр матрицы формата: По умолчанию
Параметры GOP формата: M=2, N=12
Продолжительность: 19 м.
Вид битрейта: Переменный
Битрейт: 5596 Кбит/сек
Номинальный битрейт: 9800 Кбит/сек
Ширина: 720 пикс.
Высота: 576 пикс.
Соотношение сторон: 2,35:1
Частота кадров: 25,000 кадр/сек
Стандарт вещания: PAL
Цветовое пространство: YUV
Подвыборка цветности: 4:2:0
Битовая глубина: 8 бит
Тип развёртки: Чересстрочная
Порядок развёртки: Верхнее поле первое
Метод сжатия: С потерями
Бит/(Пиксели*Кадры): 0.540
Размер потока: 789 Мбайт (77%)

Аудио #1
Идентификатор: 128 (0x80)
Формат: AC-3
Формат/Информация: Audio Coding 3
Расширение режима: CM (complete main)
Продолжительность: 19 м.
Вид битрейта: Постоянный
Битрейт: 384 Кбит/сек
Канал(ы): 6 канала(ов)
Расположение каналов: Front: L C R, Side: L R, LFE
Частота: 48,0 КГц
Битовая глубина: 16 бит
Метод сжатия: С потерями
Размер потока: 54,1 Мбайт (5%)

Аудио #2
Идентификатор: 129 (0x81)
Формат: AC-3
Формат/Информация: Audio Coding 3
Расширение режима: CM (complete main)
Продолжительность: 19 м.
Вид битрейта: Постоянный
Битрейт: 384 Кбит/сек
Канал(ы): 6 канала(ов)
Расположение каналов: Front: L C R, Side: L R, LFE
Частота: 48,0 КГц
Битовая глубина: 16 бит
Метод сжатия: С потерями
Размер потока: 54,1 Мбайт (5%)

Аудио #3
Идентификатор: 138 (0x8A)
Формат: DTS
Формат/Информация: Digital Theater Systems
Продолжительность: 19 м.
Вид битрейта: Постоянный
Битрейт: 755 Кбит/сек
Канал(ы): 6 канала(ов)
Расположение каналов: Front: L C R, Side: L R, LFE
Частота: 48,0 КГц
Битовая глубина: 24 бит
Метод сжатия: С потерями
Размер потока: 106 Мбайт (10%)

Текст #1
Идентификатор: 32 (0x20)
Формат: RLE
Формат/Информация: Run-length encoding

Текст #2
Идентификатор: 33 (0x21)
Формат: RLE
Формат/Информация: Run-length encoding

Меню





















Поделиться:




реклама партнёра


Вернуться к началу
 Профиль Отправить личное сообщение  
 
   Похожие торренты   Автор   Торрент   Размер 
В этой теме нет новых непрочитанных сообщений. Не вижу зла / See No Evil [ужасы, триллер, 2006] BDRemux 1080p, Dub

salma3

24 | 5

19.8 ГБ

В этой теме нет новых непрочитанных сообщений. Я вижу, я вижу / Ich seh, Ich seh (Северин Фиала, Вероника Франц) [Ужасы, фэнтези, триллер, драма, 2014] DVDRip-AVC, avo

Dracon

1569 | 48

1.03 ГБ

В этой теме нет новых непрочитанных сообщений. Ничего не вижу, ничего не слышу / See No Evil, Hear No Evil [боевик, триллер, комедия, криминал, 1989] BDRip 1080p, Mvo+Avo+Sub

salma3

0 | 0

7.76 ГБ

В этой теме нет новых непрочитанных сообщений. Ничего не вижу, ничего не слышу / See No Evil, Hear No Evil [Комедия, криминал, 1989] BDRip-AVC, Mvo

salma3

191 | 33

745.78 МБ

В этой теме нет новых непрочитанных сообщений. Ангел зла / Evil Angel [Ужасы, триллер, 2009] BDRip-AVC, Dvo

salma3

57 | 13

2.91 ГБ

В этой теме нет новых непрочитанных сообщений. Ангел зла / Evil Angel [Ужасы, триллер, 2009] ВDRemux 1080p, Dvo

salma3

2 | 1

17.98 ГБ

В этой теме нет новых непрочитанных сообщений. Безымянный / Exorcist House of Evil [ужасы, триллер, детектив, 2016] WEBDLRip, Mvo

salma3

198 | 39

1.37 ГБ


Начать новую тему Ответить на тему  [ 1 сообщение ] 




Для Мосгорсуда, Роскомнадзора и рекламодателей:: mosgorsud-torrent[собачка]yandex.ru