Торрент файл
скачать торрент магнет ссылка Добавлен: 08 янв 2012, 22:48
Размер: 4.37 ГБ
Сидеров: 5
Личеров: 6
Автор

СообщениеДобавлено: 08 янв 2012, 22:48 

Не в сети
Супермодератор
Аватара пользователя
Дата регистрации:
11 апр 2010, 18:10
Спасибо: 5962 / 7
Сообщения: 56765
Шопоголик / Confessions of a Shopaholic

Перевод: Профессиональный (полное дублирование)
Субтитры: Русские, украинские, английские
Формат: DVD5, DVD Video, MPEG2, AC3
Страна: США
Режиссер: П.Дж. Хоган
Жанр: Мелодрама, комедия
Продолжительность: 01:39:57
Год выпуска: 2009

В ролях: Айла Фишер, Хью Дэнси, Кристен Риттер, Джоан Кьюсак, Джон Гудмен, Джон Литгоу, Кристин Скотт Томас, Фред Армизен, Лесли Бибб, Линн Редгрейв ...

Роли дублировали: Наталия Тарыничева, Андрей Кузнецов, Светлана Кузнецова, Лидия Мельникова, Алексей Гурьев ...

Описание: Молодая девушка, помешанная на шопинге и дорогой одежде, живет в состоянии войны между своим банковским лимитом и искушениями большого города. При этом по профессии она — журналист финансового издания, щедро раздающего советы по правильному управлению личным капиталом.

Рейтинг на КиноПоиск: 6.552 (16 226)
Рейтинг на IMDb: 5.6/10
Рейтинг MPAA: PG-13

Видео: 720X576 (PAL 16:9), 25.000fps, MPEG-2 Video, ~ 7 853Kbps avg
Аудио#1: Английский 48.0KHz, AC-3, 6 ch, ~ 384Kbps avg[Оригинал]
Аудио#2: Русский 48.0KHz, AC-3, 6 ch, ~ 384Kbps avg[Профессиональный (полное дублирование)]

Слоган:[font=Coo�t>Sans MS] «Это не лечится...»[/font]


Трейлер к фильму
General
Complete name: D:\загрузка\confessions_of_a_shopaholic_[tfile.ru]\VIDEO_TS\VTS_01_3.VOB
Format: MPEG-PS
File size: 1 024 MiB
Duration: 22mn 34s
Overall bit rate: 6 344 Kbps

Video
ID: 224 (0xE0)
Format: MPEG Video
Format version: Version 2
Format profile: Main@Main
Format settings, Matrix: Default
Duration: 22mn 33s
Bit rate mode: Variable
Bit rate: 5 324 Kbps
Nominal bit rate: 7 853 Kbps
Width: 720 pixels
Height: 576 pixels
Display aspect ratio: 16/9
Frame rate: 25.000 fps
Standard: PAL
Colorimetry: 4:2:0
Scan type: Progressive
Scan order: Top Field First
Bits/(Pixel*Frame): 0.514
Stream size: 859 MiB (84%)

Audio #1
ID: 128 (0x80)
Format: AC-3
Format/Info: Audio Coding 3
Duration: 22mn 34s
Bit rate mode: Constant
Bit rate: 384 Kbps
Channel(s): 6 channels
Channel positions: Front: L C R, Surround: L R, LFE
Sampling rate: 48.0 KHz
Video delay: -768ms
Stream size: 62.0 MiB (6%)

Audio #2
ID: 131 (0x83)
Format: AC-3
Format/Info: Audio Coding 3
Duration: 22mn 34s
Bit rate mode: Constant
Bit rate: 384 Kbps
Channel(s): 6 channels
Channel positions: Front: L C R, Surround: L R, LFE
Sampling rate: 48.0 KHz
Video delay: -768ms
Stream size: 62.0 MiB (6%)

Text #1
ID: 32 (0x20)
Format: RLE
Format/Info: Run-length encoding
Duration: 22mn 33s
Video delay: -768ms

Text #2
ID: 36 (0x24)
Format: RLE
Format/Info: Run-length encoding
Duration: 22mn 33s
Video delay: -768ms

Text #3
ID: 38 (0x26)
Format: RLE
Format/Info: Run-length encoding
Duration: 22mn 33s
Video delay: -768ms

Text #4
ID: 47 (0x2F)
Format: RLE
Format/Info: Run-length encoding
Duration: 22mn 33s
Video delay: -768ms

Text #5
ID: 51 (0x33)
Format: RLE
Format/Info: Run-length encoding
Duration: 22mn 33s
Video delay: -768ms

Text #6
ID: 53 (0x35)
Format: RLE
Format/Info: Run-length encoding
Duration: 22mn 33s
Video delay: -768ms

Menu
Format: DVD-Video

[font=Coo�t>Sans MS]
Сценарий: Трэйси Джексон, Тим Фёрт, Кайла Элперт, ...
Продюсер: Рональд М. Бозман, Джерри Брукхаймер, Чад Оман, ...
Оператор: Джо Уиллемс
Композитор: Джеймс Ньютон Ховард
Художник: Кристи Зиа, Пол Д. Келли, Пэт Филд, ...
Монтаж: Уильям Голденберг
Сборы в США: $44 277 350
Сборы в мире: + $64 055 872 = $108 333 222
Сборы в России: $4 315 330
DVD в США: $12 188 416
Зрители: США5.9 млн., Великобритания1.52 млн., Россия890.7 тыс. ...
Премьера (мир): 5 февраля 2009
Премьера (РФ): 12 февраля 2009, «BVSPR Disney»
Релиз на Blu-Ray: 25 марта 2010, «Уолт Дисней Компани СНГ», ...
Релиз на DVD: 9 июля 2009, «Уолт Дисней Компани СНГ», ...
[/font]



























Поделиться:




реклама партнёра


Вернуться к началу
 Профиль Отправить личное сообщение  
 
   Похожие торренты   Автор   Торрент   Размер 
В этой теме нет новых непрочитанных сообщений. Шопоголик / Confessions of a Shopaholic [мелодрама, комедия, 2009] Blu-ray 1080p, Dub

salma3

38 | 80

28.59 ГБ

В этой теме нет новых непрочитанных сообщений. Из 13 в 30 / 13 Going on 30 [Комедия, мелодрама, 2004] DVD5, Mvo

salma3

7 | 0

4.33 ГБ

В этой теме нет новых непрочитанных сообщений. Мой наставник / My Tutor [Комедия, мелодрама, 1983] DVD5, Avo+Sub

salma3

0 | 4

4.16 ГБ

В этой теме нет новых непрочитанных сообщений. Последний танец / One Last Dance [боевик, мелодрама, комедия, криминал, 2006] DVD5, Mvo+Sub

salma3

31 | 4

4.02 ГБ

В этой теме нет новых непрочитанных сообщений. Босиком по городу / Barefoot [драма, мелодрама, комедия, 2014] DVD5, Mvo [Лицензия]

Dracon

3 | 3

4.03 ГБ

В этой теме нет новых непрочитанных сообщений. FamilyLust 17 03 05 Michelle Martinez Family Confessions XXX 720p MP4-KTR

salma3

0 | 0

404.69 МБ

В этой теме нет новых непрочитанных сообщений. Люблю твою жену / The Right Kind of Wrong [мелодрама, комедия, 2013] DVD5, Dub [Лицензия]

Dracon

46 | 8

4.1 ГБ


Начать новую тему Ответить на тему  [ 1 сообщение ] 




Для Мосгорсуда, Роскомнадзора и рекламодателей:: mosgorsud-torrent[собачка]yandex.ru