Торрент файл
скачать торрент магнет ссылка Добавлен: 08 янв 2012, 22:48
Размер: 3.91 ГБ
Сидеров: 0
Личеров: 4
Автор

СообщениеДобавлено: 08 янв 2012, 22:48 

Не в сети
Супермодератор
Аватара пользователя
Дата регистрации:
11 апр 2010, 18:10
Спасибо: 5801 / 7
Сообщения: 56779
Поезд дальше не идет / Stag Night


Перевод: Профессиональный (многоголосый, закадровый)
Субтитры: русские
Формат: DVD5, DVD Video, MPEG2, AC3
Страна: США
Режиссер: Питер А. Даулинг
Жанр: триллер, ужасы
Продолжительность: 01:20:08
Год выпуска: 2008

В ролях: Кип Парду, Брекин Мейер, Винесса Шоу, Скотт Эдкинс, Карл Джиари, Люка Берковичи, Итай Дьяков, Николай Сотиров

Описание: Планируя добраться до другого бара и продолжить прерванное празднование мальчишника, четверо парней успевают запрыгнуть в последний ночной поезд метро и встречают в нём двух девушек. Во время знакомства происходит неприятный инцидент, после чего вся компания оказывается на станции, заброшенной в далёких 70-х. Начав исследовать туннели в поисках выхода, молодые люди становятся свидетелями жестокого убийства полицейского группой бездомных людей, которые начинают на них охоту.

Рейтинг IMDB: 5.0/10
Рейтинг Кинопоиск.RU: 5.154
Рейтинг MPAA:R

Видео: 720x576, (PAL 16:9), 25,000 кадр/сек, MPEG2 Video, ~5491 Кбит/сек
Аудио#1:Русский 48,0 КГц, Dolby AC3, 6 ch, ~384 Кбит/сек [Профессиональный (многоголосый, закадровый)]
Аудио#2:Русский48,0 КГц, Dolby AC3, 2 ch, ~192 Кбит/сек [Профессиональный (многоголосый, закадровый)]
Аудио#3:Английский 48,0 КГц, Dolby AC3, 2 ch, ~192 Кбит/сек [Оригинал]

Общее
Полное имя: C:\Documents and Settings\Admin.MICROSOF-68219C\Мои документы\Загрузки\Poezd_dalshe_ne_idet\VIDEO_TS\VTS_02_1.VOB
Формат: MPEG-PS
Размер файла: 1024 Мбайт
Продолжительность: 22 м.
Общий поток: 6386 Кбит/сек

Видео
Идентификатор: 224 (0xE0)
Формат: MPEG Video
Версия формата: Version 2
Профиль формата: Main@Main
Параметр BVOP формата: Да
Параметр матрицы формата: По умолчанию
Параметры GOP формата: M=3, N=12
Продолжительность: 22 м.
Вид битрейта: Переменный
Битрейт: 5491 Кбит/сек
Номинальный битрейт: 8000 Кбит/сек
Ширина: 720 пикс.
Высота: 576 пикс.
Соотношение сторон: 16:9
Частота кадров: 25,000 кадр/сек
Стандарт вещания: PAL
Цветовое пространство: YUV
Подвыборка цветности: 4:2:0
Битовая глубина: 8 бит
Тип развёртки: Чересстрочная
Порядок развёртки: Верхнее поле первое
Метод сжатия: С потерями
Бит/(Пиксели*Кадры): 0.530
Размер потока: 880 Мбайт (86%)

Аудио #1
Идентификатор: 128 (0x80)
Формат: AC-3
Формат/Информация: Audio Coding 3
Расширение режима: CM (complete main)
Продолжительность: 22 м.
Вид битрейта: Постоянный
Битрейт: 384 Кбит/сек
Канал(ы): 6 канала(ов)
Расположение каналов: Front: L C R, Side: L R, LFE
Частота: 48,0 КГц
Битовая глубина: 16 бит
Метод сжатия: С потерями
Размер потока: 61,6 Мбайт (6%)

Аудио #2
Идентификатор: 129 (0x81)
Формат: AC-3
Формат/Информация: Audio Coding 3
Расширение режима: CM (complete main)
Продолжительность: 22 м.
Вид битрейта: Постоянный
Битрейт: 192 Кбит/сек
Канал(ы): 2 канала(ов)
Расположение каналов: Front: L R
Частота: 48,0 КГц
Битовая глубина: 16 бит
Метод сжатия: С потерями
Размер потока: 30,8 Мбайт (3%)

Аудио #3
Идентификатор: 130 (0x82)
Формат: AC-3
Формат/Информация: Audio Coding 3
Расширение режима: CM (complete main)
Продолжительность: 22 м.
Вид битрейта: Постоянный
Битрейт: 192 Кбит/сек
Канал(ы): 2 канала(ов)
Расположение каналов: Front: L R
Частота: 48,0 КГц
Битовая глубина: 16 бит
Метод сжатия: С потерями
Размер потока: 30,8 Мбайт (3%)











Поделиться:




реклама партнёра


Вернуться к началу
 Профиль Отправить личное сообщение  
 
   Похожие торренты   Автор   Торрент   Размер 
В этой теме нет новых непрочитанных сообщений. Ночной поезд / Призрачный экспресс / Night Train [триллер, детектив, 2009] BDRip, Mvo [Лицензия]

salma3

95 | 7

1.45 ГБ

В этой теме нет новых непрочитанных сообщений. Ночной поезд до Лиссабона / Night Train To Lisbon [Триллер, Мелодрама, Детектив, 2013] BDRip 1080p, Mvo+Sub

Dracon

9 | 3

11.34 ГБ

В этой теме нет новых непрочитанных сообщений. Ночной поезд до Лиссабона / Night Train To Lisbon [Триллер, Мелодрама, Детектив, 2013] BDRip 720p, Mvo+Sub

Dracon

10 | 4

5.03 ГБ

В этой теме нет новых непрочитанных сообщений. Инициация: Тихая ночь, смертельная ночь 4 / Initiation: Silent Night, Deadly Night 4 [ужасы, триллер, 1990] DVDRip, Avo

salma3

127 | 304

1.37 ГБ

В этой теме нет новых непрочитанных сообщений. Тихая ночь, смертельная ночь / Silent Night, Deadly Night [ужасы, триллер, слэшер, 1984] BDRip 720p, Avo

salma3

9 | 3

3.6 ГБ

В этой теме нет новых непрочитанных сообщений. Неудачная ночь / Ночь накануне Хэллоуина / Mischief Night / The Night Before Halloween [ужасы, триллер, драма, 2013] BDRip 1080p, Avo

salma3

27 | 3

5.61 ГБ

В этой теме нет новых непрочитанных сообщений. Неудачная ночь / Ночь накануне Хэллоуина / Mischief Night / The Night Before Halloween [ужасы, триллер, драма, 2013] BDRip 720p, Avo

salma3

71 | 2

2.38 ГБ


Начать новую тему Ответить на тему  [ 1 сообщение ] 




Для Мосгорсуда, Роскомнадзора и рекламодателей:: mosgorsud-torrent[собачка]yandex.ru