Торрент файл
скачать торрент магнет ссылка Добавлен: 08 янв 2012, 22:48
Размер: 3.88 ГБ
Сидеров: 0
Личеров: 9
Автор

СообщениеДобавлено: 08 янв 2012, 22:48 

Не в сети
Супермодератор
Аватара пользователя
Дата регистрации:
11 апр 2010, 18:10
Спасибо: 5802 / 7
Сообщения: 56779
Вторая жизнь Фёдора Строгова


Перевод: Не требуется
Субтитры: Отсутсвуют
Формат: DVD5, DVD Video, MPEG2, AC3
Страна: Россия
Режиссер: Армен Назикян
Жанр: драма, мелодрама
Продолжительность: 01:32:00
Год выпуска: 2009

В ролях: Александр Пашков, Марина Денисова, Раиса Рязанова, Дмитрий Пустильник, Святослав Астрамович, Александр Брухацкий, Виктор Молчан, Сергей Новицкий, Армен Назикян

Описание: Узнав об уходе любимой жены к другому мужчине, осужденный Фёдор Строгов решается на побег из колонии, чтобы с глазу на глаз выяснить с ней отношения. Долгое скитание по таежным лесам едва не приводит его к смерти. К счастью, раненого и изможденного Фёдора случайно находят обитатели глухой лесной заимки, которые делают все возможное, чтобы поставить незнакомца на ноги.

Особую заботу о нем проявляет девушка Полина, которая работает здесь егерем. Она симпатизирует Фёдору, хотя на ее руку и сердце давно претендует местный участковый Михаил. Никто пока не знает, что они имеют дело с беглым зеком. Вскоре между Полиной и Строговым возникает любовь. Между тем Михаил по служебным каналам получает фото беглого заключенного и узнает на нем Фёдора…


Рейтинг КиноПоиск.RU: 7.667

Видео: 720x576 (PAL 16:9), 25,000 fps, MPEG-2 Video ~ 9200 kbps avg
Аудио #1: Русский: 48 kHz, AC3 Dolby Digital, 2 ch, ~ 192 kbps avg
Аудио #2: Русский: 48 kHz, AC3 Dolby Digital, 6 ch, ~ 448 kbps avg

Доп.информация: [ Лицензионное издание "Русское счастье Энтертеймент"]
Meню озвученное, частично анимированное, на русском языке, с навигацией по эпизодам. Все кнопки функциональны.


Общее
Полное имя: D:\DVD\Вторая жизнь Фёдора Строгова\VIDEO_TS\VTS_01_3.VOB
Формат: MPEG-PS
Размер файла: 1024 Мбайт
Продолжительность: 24 м.
Общий поток: 5871 Кбит/сек

Видео
Идентификатор: 224 (0xE0)
Формат: MPEG Video
Версия формата: Version 2
Профиль формата: Main@Main
Параметр BVOP формата: Да
Параметр матрицы формата: По умолчанию
Параметры GOP формата: M=3, N=12
Продолжительность: 24 м.
Вид битрейта: Переменный
Битрейт: 5115 Кбит/сек
Номинальный битрейт: 9200 Кбит/сек
Ширина: 720 пикс.
Высота: 576 пикс.
Соотношение сторон: 16:9
Частота кадров: 25,000 кадр/сек
Стандарт вещания: PAL
Цветовое пространство: YUV
Подвыборка цветности: 4:2:0
Битовая глубина: 8 бит
Тип развёртки: Прогрессивная
Метод сжатия: С потерями
Бит/(Пиксели*Кадры): 0.493
Размер потока: 892 Мбайт (87%)

Аудио #1
Идентификатор: 128 (0x80)
Формат: AC-3
Формат/Информация: Audio Coding 3
Расширение режима: CM (complete main)
Продолжительность: 24 м.
Вид битрейта: Постоянный
Битрейт: 192 Кбит/сек
Канал(ы): 2 канала(ов)
Расположение каналов: Front: L R
Частота: 48,0 КГц
Битовая глубина: 16 бит
Метод сжатия: С потерями
Задержка видео: -480 мс.
Размер потока: 33,5 Мбайт (3%)

Аудио #2
Идентификатор: 129 (0x81)
Формат: AC-3
Формат/Информация: Audio Coding 3
Расширение режима: CM (complete main)
Продолжительность: 24 м.
Вид битрейта: Постоянный
Битрейт: 448 Кбит/сек
Канал(ы): 6 канала(ов)
Расположение каналов: Front: L C R, Side: L R, LFE
Частота: 48,0 КГц
Битовая глубина: 16 бит
Метод сжатия: С потерями
Задержка видео: -576 мс.
Размер потока: 78,1 Мбайт (8%)

















Поделиться:




реклама партнёра


Вернуться к началу
 Профиль Отправить личное сообщение  
 
   Похожие торренты   Автор   Торрент   Размер 
В этой теме нет новых непрочитанных сообщений. Команда [01x01-24 из 24] (Арменак Назикян, Армен Арутюнян-Елецкий, Игорь Драка) [Криминал, 2015] HDTVRip

Dracon

223 | 56

12.88 ГБ

В этой теме нет новых непрочитанных сообщений. Команда [01-24 из 24] (Арменак Назикян, Армен Арутюнян-Елецкий, Игорь Драка) [Криминал, 2015] HDTV 720p

Dracon

177 | 201

34.14 ГБ

В этой теме нет новых непрочитанных сообщений. Команда [01-24 из 24] (Арменак Назикян, Армен Арутюнян-Елецкий, Игорь Драка) [Криминальный фильм, 2015] HDTV 1080i

Dracon

86 | 89

53.25 ГБ

В этой теме нет новых непрочитанных сообщений. Вторая жизнь [01-04 из 04] (Андрей Силкин) [Мелодрама, 2015] WEB-DL 720p

Dracon

115 | 3

3.41 ГБ

В этой теме нет новых непрочитанных сообщений. Вторая жизнь [01-04 из 04] (Андрей Силкин) [Мелодрама, 2015] WEB-DL 1080p

Dracon

418 | 52

5.18 ГБ

В этой теме нет новых непрочитанных сообщений. Вторая жизнь [Серия 1-4 из 4] (Андрей Силкин) [Мелодрама, 2015] SATRip

Dracon

4 | 0

2.28 ГБ

В этой теме нет новых непрочитанных сообщений. Вторая жизнь Уве / En man som heter Ove [драма, комедия, 2015] HDRip, Dub [чистый звук]

salma3

2393 | 140

1.37 ГБ


Начать новую тему Ответить на тему  [ 1 сообщение ] 




Для Мосгорсуда, Роскомнадзора и рекламодателей:: mosgorsud-torrent[собачка]yandex.ru