Торрент файл
скачать торрент магнет ссылка Добавлен: 08 янв 2012, 22:47
Размер: 4.02 ГБ
Сидеров: 0
Личеров: 5
Автор

СообщениеДобавлено: 08 янв 2012, 22:47 

Не в сети
Супермодератор
Аватара пользователя
Дата регистрации:
11 апр 2010, 18:10
Спасибо: 5802 / 7
Сообщения: 56779
Эта замечательная загробная жизнь / It's a Wonderful Afterlife


Перевод: Профессиональный (многоголосый, закадровый)
Субтитры:Отсутствуют
Формат: DVD5, DVD Video, MPEG2, AC3
Страна: Великобритания
Режиссер: Гуриндер Чадха
Жанр: Ужасы, комедия
Продолжительность: 01:34:49
Год выпуска: 2010

В ролях: Санджив Бхаскар, Стив Морфью, Стив Джонс, Джэми Сивз, Сендхил Рамамурти, Марк Эдди, Шабана Азми, Goldy Notay, Саша Шилов

Описание: Типичная индуистская семья, проживающая в Англии. Мама, патриарх этой семьи, так хочет отдать свою страшненькую дочку за хорошего парня, что становится серийным убийцей. Проблема в том, что привидения убитых ею людей не могут покинуть этот мир, пока дочь ее остается незамужней.

Рейтинг на IMDB:5.1 / 10
Рейтинг на КиноПоиск.RU:6.56
Рейтинг на MPAA:PG-13

Видео: 720x576, (PAL 16:9), 25,000 кадр/сек, MPEG Video, ~5051 Кбит/сек
Аудио#1:Русский 48 kHz, AC3, 2 ch, ~192 kbps [Профессиональный (многоголосый закадровый)]

Доп.информация: Лицензионное издание <<Флагман Трейд>>

Общее
C:\Eta_zamechatelnaja_zagrobnaja_zhizn\VIDEO_TS\VTS_01_1.VOB
Формат: MPEG-PS
Размер файла: 1024 Мбайт
Продолжительность: 26 м.
Общий поток: 5350 Кбит/сек
Библиотека кодирования: (c) 1998-2008 Womble Multimedia, Inc. / MPEG Video Wizard (12/200 / Mar 31 2009

Видео
Идентификатор: 224 (0xE0)
Формат: MPEG Video
Версия формата: Version 2
Профиль формата: Main@Main
Параметр BVOP формата: Да
Параметр матрицы формата: По умолчанию
Продолжительность: 26 м.
Вид битрейта: Переменный
Битрейт: 5051 Кбит/сек
Номинальный битрейт: 9000 Кбит/сек
Ширина: 720 пикс.
Высота: 576 пикс.
Соотношение сторон: 16:9
Частота кадров: 25,000 кадр/сек
Стандарт вещания: PAL
Цветовое пространство: YUV
Подвыборка цветности: 4:2:0
Битовая глубина: 8 бит
Тип развёртки: Чересстрочная
Порядок развёртки: Верхнее поле первое
Метод сжатия: С потерями
Бит/(Пиксели*Кадры): 0.487
Размер потока: 967 Мбайт (94%)
Библиотека кодирования: (c) 1998-2008 Womble Multimedia, Inc. / MPEG Video Wizard (12/200 / Mar 31 2009

Аудио
Идентификатор: 128 (0x80)
Формат: AC-3
Формат/Информация: Audio Coding 3
Расширение режима: CM (complete main)
Продолжительность: 26 м.
Вид битрейта: Постоянный
Битрейт: 192 Кбит/сек
Канал(ы): 2 канала(ов)
Расположение каналов: Front: L R
Частота: 48,0 КГц
Битовая глубина: 16 бит
Метод сжатия: С потерями
Задержка видео: -40 мс.
Размер потока: 36,7 Мбайт (4%)











Поделиться:




реклама партнёра


Вернуться к началу
 Профиль Отправить личное сообщение  
 
   Похожие торренты   Автор   Торрент   Размер 
В этой теме нет новых непрочитанных сообщений. Пульс 2: Загробная жизнь / Pulse 2: Afterlife [ужасы, фантастика, 2008] DVDRip, Dvo

salma3

8 | 0

1.37 ГБ

В этой теме нет новых непрочитанных сообщений. Обитель зла 4: Жизнь после смерти / Resident Evil: Afterlife [боевик, ужасы, 2010] HDRip, Avo [Гаврилов]

salma3

18 | 4

1.46 ГБ

В этой теме нет новых непрочитанных сообщений. После смерти / Afterlife [S01-02] [ ужасы, триллер, драма, мистика, 2005-2006] DVDRip, Mvo

salma3

11 | 5

5.39 ГБ

В этой теме нет новых непрочитанных сообщений. Невероятная жизнь Уолтера Митти / The Secret Life of Walter Mitty [фэнтези, драма, комедия, приключения, 2013] DVD5, Dub+Sub [Сжатый]

Dracon

55 | 12

4.37 ГБ

В этой теме нет новых непрочитанных сообщений. Кошелек или жизнь / Trick 'r Treat [ужасы, чёрная комедия, триллер, 2007] BDRip, Dub [Лицензия]

salma3

79 | 8

1.46 ГБ

В этой теме нет новых непрочитанных сообщений. Замечательная поездка / Timescape [фантастика, триллер, драма, 1992] DVDRip, Dvo

salma3

73 | 10

1.43 ГБ

В этой теме нет новых непрочитанных сообщений. Отдельная жизнь / Separate Lives [Триллер, 1995] DVD5, Avo+Mvo

salma3

2 | 3

4.03 ГБ


Начать новую тему Ответить на тему  [ 1 сообщение ] 




Для Мосгорсуда, Роскомнадзора и рекламодателей:: mosgorsud-torrent[собачка]yandex.ru