Торрент файл
скачать торрент магнет ссылка Добавлен: 08 янв 2012, 22:45
Размер: 3.78 ГБ
Сидеров: 1
Личеров: 5
Автор

СообщениеДобавлено: 08 янв 2012, 22:45 

Не в сети
Супермодератор
Аватара пользователя
Дата регистрации:
11 апр 2010, 18:10
Спасибо: 5960 / 7
Сообщения: 56765
Борцу не больно


Перевод: Не требуется
Субтитры: Отсутствуют
Формат: DVD5, DVD Video, MPEG2, AC3
Режиссер: Нурбек Эген
Жанр: драма, спорт
Продолжительность: 01:14:06
Год выпуска: 2010

В ролях: Николай Добрынин, Петр Скворцов, Алексей Маслодудов, Савва Гусев, Сергей Шнуров, Всеволод Шиловский, Олеся Железняк

Описание: Славику 14 лет. Он растет на окраине провинциального городка, в условиях фактической беспризорности: хулиганит, дерется, употребляет наркотики, ворует. В общем живет по законам улицы. Однажды судьба сводит Славика с мудрым и проницательным тренером по самбо — Михалычем. Тренер отмечает борцовский характер мальчика и приглашает Славика на тренировки. Славик отказывается. По иронии судьбы приглашение Михалыча провоцирует Славика на очередное преступление — кражу в борцовском клубе. Но воришку ждет неудача. Его ловит с поличным все тот же мудрый Михалыч. Но тренер не спешит отдать Славика в руки милиции, пытается своими силами вырвать подростка из уличных пут. И начинается жизненный поединок между тренером и его беспокойным учеником. Юноша делает успехи в спорте, и его замечает местный криминальный авторитет Клин. Славка получает предложение бросить спортивную школу и поучаствовать в нелегальных поединках, что сулит парню неплохие деньги... Фильм повествует о моральном выборе борца и его приключениях. Это картина о провинциальных подростках, которые едва не встают на криминальный путь. Самбо. Спорт. Именно он спасает ребят. И дает им ту систему философских и жизненных ценностей, каких ребята до этого не имели. Естественно, все происходит не сразу. Но постепенно они меняются, формируются как личности.

Рейтинг на Кинопоиск.RU: 7.77

Видео: 720x576 (PAL /4:3), 25.000 fps, MPEG-2 Video, ~6936 Kbps avg
Аудио: Русский 48 kHz, AC-3, 2 ch, ~192 kbps avg



Общее
Полное имя: C:\Фильмы\borcu_ne_bolno_[tfile.ru]\VIDEO_TS\VTS_02_2.VOB
Формат: MPEG-PS
Размер файла: 1024 Мбайт
Продолжительность: 19 м.
Общий поток: 7273 Кбит/сек

Видео
Идентификатор: 224 (0xE0)
Формат: MPEG Video
Версия формата: Version 2
Профиль формата: Main@Main
Параметр BVOP формата: Да
Параметр матрицы формата: По умолчанию
Параметры GOP формата: M=3, N=13
Продолжительность: 19 м.
Вид битрейта: Переменный
Битрейт: 6936 Кбит/сек
Номинальный битрейт: 8000 Кбит/сек
Ширина: 720 пикс.
Высота: 576 пикс.
Соотношение сторон: 4:3
Частота кадров: 25,000 кадр/сек
Стандарт вещания: PAL
Цветовое пространство: YUV
Подвыборка цветности: 4:2:0
Битовая глубина: 8 бит
Тип развёртки: Прогрессивная
Метод сжатия: С потерями
Бит/(Пиксели*Кадры): 0.669
Размер потока: 976 Мбайт (95%)

Аудио
Идентификатор: 128 (0x80)
Формат: AC-3
Формат/Информация: Audio Coding 3
Расширение режима: CM (complete main)
Продолжительность: 19 м.
Вид битрейта: Постоянный
Битрейт: 192 Кбит/сек
Канал(ы): 2 канала(ов)
Расположение каналов: Front: L R
Частота: 48,0 КГц
Битовая глубина: 16 бит
Метод сжатия: С потерями
Задержка видео: -624 мс.
Размер потока: 27,0 Мбайт (3%)













Поделиться:




реклама партнёра


Вернуться к началу
 Профиль Отправить личное сообщение  
 
   Похожие торренты   Автор   Торрент   Размер 
В этой теме нет новых непрочитанных сообщений. Жить дальше [01-12 из 12] (Нурбек Эген) [Мелодрама, 2013] WEB-DLRip

Dracon

26 | 10

7.04 ГБ

В этой теме нет новых непрочитанных сообщений. Жить дальше [01-12 из 12] (Нурбек Эген) [Мелодрама, 2013] WEB-DL 1080p

Dracon

41 | 5

11.93 ГБ

В этой теме нет новых непрочитанных сообщений. На гребне / Drift [драма, спорт, 2013] DVD5, Mvo [Лицензия]

Dracon

24 | 8

4.23 ГБ

В этой теме нет новых непрочитанных сообщений. Суперкросс / Supercross [Боевик, Мелодрама, Драма, Спорт, 2005] DVD5, Dub

salma3

24 | 5

3.74 ГБ

В этой теме нет новых непрочитанных сообщений. Мне же больно (2017) CamRip

Dievas

249 | 82

844.61 МБ

В этой теме нет новых непрочитанных сообщений. Крид: Наследие Рокки / Creed (Райан Куглер) [Драма, спорт, 2015] DVD5 [IDEAFILM]

Dracon

1848 | 105

4.23 ГБ

В этой теме нет новых непрочитанных сообщений. Аккуратней Андрюша, мне же больно [2014 г., Amateur, All sex,, CamRip 720р]

Tolia696

4 | 4

356.19 МБ


Начать новую тему Ответить на тему  [ 1 сообщение ] 




Для Мосгорсуда, Роскомнадзора и рекламодателей:: mosgorsud-torrent[собачка]yandex.ru