Торрент файл
скачать торрент магнет ссылка Добавлен: 08 янв 2012, 22:45
Размер: 3.21 ГБ
Сидеров: 0
Личеров: 2
Автор

СообщениеДобавлено: 08 янв 2012, 22:45 

Не в сети
Супермодератор
Аватара пользователя
Дата регистрации:
11 апр 2010, 18:10
Спасибо: 5801 / 7
Сообщения: 56779
Привет, Джули! / Flipped


Перевод: Профессиональный (многоголосый, закадровый)
Субтитры: русские, английские, украинские
Формат: DVD5, DVD Video, MPEG2, AC3
Страна: США
Режиссер: Роб Райнер
Жанр: драма, мелодрама, комедия
Продолжительность: 01:29:14
Год выпуска: 2010

В ролях: Мадлен Кэрролл, Каллэн МакОлиффи, Ребекка Де Морнэй, Энтони Эдвардс, Джон Махони, Пенелопа Энн Миллер, Эйдан Куинн Кевин Уайзман, Морган Лили, Райан Кетцнер

Описание: Джули Бейкер, увидев Брайса Лоски, сразу же в него влюбляется. А сам Брайс наоборот — сразу же начинает питать антипатию к Джули. Но потом, после восьмого класса Джули теряет интерес к нему, а он — наоборот начинает находить в Джули что-то интересное.

Рейтинг на IMDB: 7.4/10
Рейтинг МРАА: PG
Рейтинг КиноПоиск.RU: 8.024

Видео: 720x576 (PAL 16:9), 25,000 fps, MPEG-2 Video ~ 7500 kbps avg
Аудио #1: Английский: 48 kHz, AC3 Dolby Digital, 6 ch, ~ 384 kbps avg [Оригинал]
Аудио #2: Русский: 48 kHz, AC3 Dolby Digital, 6 ch, ~ 384 kbps avg [Профессиональный (многоголосый, закадровый)]

Слоган: «Вы никогда не забываете своей первой любви.»

Доп.информация: [ Лицензионное издание «CP Digital»]
Meню озвученное, статичное, на английском языке, с навигацией по эпизодам. Все кнопки функциональны.


Общее
Полное имя: D:\DVD\Привет, Джули!\VIDEO_TS\VTS_01_2.VOB
Формат: MPEG-PS
Размер файла: 1024 Мбайт
Продолжительность: 27 м.
Общий поток: 5154 Кбит/сек

Видео
Идентификатор: 224 (0xE0)
Формат: MPEG Video
Версия формата: Version 2
Профиль формата: Main@Main
Параметр BVOP формата: Да
Параметр матрицы формата: По умолчанию
Продолжительность: 27 м.
Вид битрейта: Переменный
Битрейт: 4283 Кбит/сек
Номинальный битрейт: 7500 Кбит/сек
Ширина: 720 пикс.
Высота: 576 пикс.
Соотношение сторон: 16:9
Частота кадров: 25,000 кадр/сек
Стандарт вещания: PAL
Цветовое пространство: YUV
Подвыборка цветности: 4:2:0
Битовая глубина: 8 бит
Тип развёртки: Чересстрочная
Порядок развёртки: Верхнее поле первое
Метод сжатия: С потерями
Бит/(Пиксели*Кадры): 0.413
Размер потока: 851 Мбайт (83%)

Аудио #1
Идентификатор: 128 (0x80)
Формат: AC-3
Формат/Информация: Audio Coding 3
Расширение режима: CM (complete main)
Продолжительность: 27 м.
Вид битрейта: Постоянный
Битрейт: 384 Кбит/сек
Канал(ы): 6 канала(ов)
Расположение каналов: Front: L C R, Side: L R, LFE
Частота: 48,0 КГц
Битовая глубина: 16 бит
Метод сжатия: С потерями
Задержка видео: -168 мс.
Размер потока: 76,3 Мбайт (7%)

Аудио #2
Идентификатор: 129 (0x81)
Формат: AC-3
Формат/Информация: Audio Coding 3
Расширение режима: CM (complete main)
Продолжительность: 27 м.
Вид битрейта: Постоянный
Битрейт: 384 Кбит/сек
Канал(ы): 6 канала(ов)
Расположение каналов: Front: L C R, Side: L R, LFE
Частота: 48,0 КГц
Битовая глубина: 16 бит
Метод сжатия: С потерями
Задержка видео: -168 мс.
Размер потока: 76,3 Мбайт (7%)

Текст #1
Идентификатор: 32 (0x20)
Формат: RLE
Формат/Информация: Run-length encoding
Продолжительность: 27 м.
Задержка видео: 1 с. 920 мс.

Текст #2
Идентификатор: 33 (0x21)
Формат: RLE
Формат/Информация: Run-length encoding
Продолжительность: 27 м.
Задержка видео: 1 с. 920 мс.

Текст #3
Идентификатор: 34 (0x22)
Формат: RLE
Формат/Информация: Run-length encoding
Продолжительность: 27 м.
Задержка видео: 1 с. 920 мс.

















Поделиться:




реклама партнёра


Вернуться к началу
 Профиль Отправить личное сообщение  
 
   Похожие торренты   Автор   Торрент   Размер 
В этой теме нет новых непрочитанных сообщений. А вот и она / And So It Goes (Роб Райнер) [2014, драма, мелодрама, комедия, TS] Dub

Nickolas3435

93 | 18

1.37 ГБ

В этой теме нет новых непрочитанных сообщений. А вот и она / And So It Goes [Драма, мелодрама, Комедия, 2014] DVD5, Dub [Лицензия]

Dracon

32 | 3

3.96 ГБ

В этой теме нет новых непрочитанных сообщений. Хоть раз в жизни / Begin again [драма, мелодрама, комедия, 2013] DVD5, Dub [Лицензия]

Dracon

54 | 4

4.06 ГБ

В этой теме нет новых непрочитанных сообщений. Босиком по городу / Barefoot [драма, мелодрама, комедия, 2014] DVD5, Mvo [Лицензия]

Dracon

3 | 3

4.03 ГБ

В этой теме нет новых непрочитанных сообщений. Привет, незнакомец / Kuan meun ho (Баньенг Писензенекун / Banjong Pisanthanakun) [2010г., Таиланд, комедия, DVDRip] dvo

Alfredovich

2 | 2

1.54 ГБ

В этой теме нет новых непрочитанных сообщений. Фокус / Focus (Гленн Фикарра, Джон Рекуа) [драма, мелодрама, комедия, криминал, 2015] DVD5, Dub+Sub [Лицензия]

Dracon

169 | 26

4.36 ГБ

В этой теме нет новых непрочитанных сообщений. Гениальный папа / Father of Invention [комедия, драма, 2010] DVD5, Dub [лицензия]

salma3

9 | 5

4.15 ГБ


Начать новую тему Ответить на тему  [ 1 сообщение ] 




Для Мосгорсуда, Роскомнадзора и рекламодателей:: mosgorsud-torrent[собачка]yandex.ru