Торрент файл
скачать торрент магнет ссылка Добавлен: 08 янв 2012, 22:44
Размер: 4.33 ГБ
Сидеров: 14
Личеров: 9
Автор

СообщениеДобавлено: 08 янв 2012, 22:44 

Не в сети
Супермодератор
Аватара пользователя
Дата регистрации:
11 апр 2010, 18:10
Спасибо: 5799 / 7
Сообщения: 56779
Стена / Pink Floyd The Wall


Перевод: Субтитры
Субтитры:Русские, английские
Формат: DVD5, DVD Video, MPEG2, AC3
Страна: Великобритания
Режиссер: Алан Паркер / Alan Parker
Жанр: драма, музыкальный
Продолжительность: 01:35:12
Год выпуска: 1982

В ролях: Боб Гелдоф, Кристин Харгривс, Джеймс Лоренсон, Элеанор Дэвид, Кевин МакКеон, Боб Хоскинс, Дэвид Бингэм, Дженни Райт, Алекс МакЭвой, Эллис Дэйл, Джеймс Хэзелдайн, Рэй Морт, Марджери Мэйсон, Роберт Бриджес, Майкл Энсайн, Мари Пассарелли, Уинстон Роуз

Описание: Музыкальный фильм, ставший классикой жанра. Да что там, просто легендой... Снятый Аланом Паркером в 1982 году, он является экранизацией одноимённого альбома Пинк Флойд 1979 года. Шаг за шагом, наблюдая поток детских воспоминаний и пугающих галлюцинаций, мы погружаемся в сознание Пинка — рок-звезды, чей внутренний конфликт и нетерпимость приводит сперва к социальной, а затем и к психической изоляции. Фильм полон глубоких аллегорий, в нём, как нигде, удачно сочетаются кинематография и анимация.
Сценарий к фильму был написан басистом группы Роджером Уотерсом (Roger Waters, он же был и основным автором одноименного альбома, выпущенного в 1979 году). Картина рассказывает о жизни и судьбе рок-звезды Пинка, и о «стене отчуждения», отгораживающей его от всего остального мира.


Рейтинг КиноПоиск.RU: 8.421
Рейтинг на IMDB: 7.7/10
Рейтинг MPAA: R

Видео: 720х576 (PAL 16/9), MPEG-2 Video, 25.000 fps, ~ 4400 kbps VBR
Аудио#1: Английский, 48 kHz, AC3, 6 ch ~ 448 kbps
Аудио#2: Английский, 48 kHz, LPCM 6 ch ~ 1536 kbps

Доп. информация: Релиз сделан программой DVDRemake Pro из DVD9 (Pink Floyd The Wall - 25Th Anniversary Deluxe Edition), удалены все дополнительные материалы, одна звуковая дорожка (AC3 Dolby Digital; 2 ch; 48 kHz; 192 kbps)

Сохранено видео и две звуковые дорожки не пережимались - оригинальные как на DVD9 диске!

Сэмпл

Общее
Формат: MPEG-PS
Размер файла: 1024 Мбайт
Продолжительность: 21 м.
Общий поток: 6652 Кбит/сек

Видео
Идентификатор: 224 (0xE0)
Формат: MPEG Video
Версия формата: Version 2
Профиль формата: Main@Main
Параметр BVOP формата: Да
Параметр матрицы формата: По умолчанию
Продолжительность: 21 м.
Вид битрейта: Переменный
Битрейт: 4536 Кбит/сек
Ширина: 720 пикс.
Высота: 576 пикс.
Соотношение сторон: 2,35:1
Частота кадров: 25,000 кадр/сек
Стандарт вещания: PAL
Цветовое пространство: YUV
Подвыборка цветности: 4:2:0
Битовая глубина: 8 бит
Метод сжатия: С потерями
Бит/(Пиксели*Кадры): 0.437
Размер потока: 698 Мбайт (68%)

Аудио #1
Идентификатор: 128 (0x80)
Формат: AC-3
Формат/Информация: Audio Coding 3
Расширение режима: CM (complete main)
Продолжительность: 16 м.
Вид битрейта: Постоянный
Битрейт: 448 Кбит/сек
Канал(ы): 6 канала(ов)
Расположение каналов: Front: L C R, Side: L R, LFE
Частота: 48,0 КГц
Битовая глубина: 16 бит
Метод сжатия: С потерями
Задержка видео: 4 м. 32 с.
Размер потока: 54,4 Мбайт (5%)

Аудио #2
Идентификатор: 161 (0xA1)
Формат: PCM
Параметр Endianness формата: Big
Параметр Sign формата: Signed
Режим смешивания: DVD-Video
Продолжительность: 16 м.
Вид битрейта: Постоянный
Битрейт: 1536 Кбит/сек
Канал(ы): 2 канала(ов)
Расположение каналов: Front: L R
Частота: 48,0 КГц
Битовая глубина: 16 бит
Задержка видео: 4 м. 32 с.
Размер потока: 186 Мбайт (18%)

Меню











Поделиться:




реклама партнёра


Вернуться к началу
 Профиль Отправить личное сообщение  
 
   Похожие торренты   Автор   Торрент   Размер 
В этой теме нет новых непрочитанных сообщений. VA - The Many Faces Of Pink Floyd: A Journey Through The Inner World Of Pink Floyd (3CD Set) [2013, Progressive Rock, MP3]

PriZraK

20 | 6

417.27 МБ

В этой теме нет новых непрочитанных сообщений. Pink Floyd - Defacing The Wall (Radio Promo) [2012, Progressive Rock, Psychedelic Rock, Classic Rock, MP3]

PriZraK

5 | 4

70.52 МБ

В этой теме нет новых непрочитанных сообщений. Brit Floyd - The Pink Floyd Tribute Show [2011, Progressive Rock, Psychedelic Rock, MP3]

PriZraK

9 | 6

319.75 МБ

В этой теме нет новых непрочитанных сообщений. Pink Floyd - Sampler [2011, Progressive Rock, MP3]

PriZraK

3 | 4

81.65 МБ

В этой теме нет новых непрочитанных сообщений. Pink Floyd - Wish You Were Here [Experience Edition] [2011, Rock, MP3]

PriZraK

10 | 7

259.65 МБ

В этой теме нет новых непрочитанных сообщений. Pink Floyd - Animal Instincts [1977, Psychedelic, Progressive Rock, MP3]

PriZraK

23 | 5

315.73 МБ

В этой теме нет новых непрочитанных сообщений. Pink Floyd - Cruel But Fair (bootleg) [1975, Progressive Rock, MP3]

PriZraK

0 | 5

327.54 МБ


Начать новую тему Ответить на тему  [ 1 сообщение ] 




Для Мосгорсуда, Роскомнадзора и рекламодателей:: mosgorsud-torrent[собачка]yandex.ru