Торрент файл
скачать торрент магнет ссылка Добавлен: 08 янв 2012, 22:44
Размер: 4.15 ГБ
Сидеров: 0
Личеров: 5
Автор

СообщениеДобавлено: 08 янв 2012, 22:44 

Не в сети
Супермодератор
Аватара пользователя
Дата регистрации:
11 апр 2010, 18:10
Спасибо: 5960 / 7
Сообщения: 56765
Бассейн / Swimming Pool


Перевод: Профессиональный (многоголосый, закадровый)
Субтитры: Русские
Формат: DVD5, DVD Video, MPEG2, AC3
Страна: Франция, Великобритания
Режиссер: Франсуа Озон
Жанр: триллер, драма, криминал, детектив
Продолжительность: 01:38:13
Год выпуска: 2003

В ролях: Шарлотта Рэмплинг, Людивин Санье, Чарльз Дэнс, Марк Файоль, Жан-Мари Ламур, Мирей Моссе, Мишель Фо, Жан-Клод Лека

Описание: Английская писательница Сара Мортон приезжает в поместье своего издателя, дабы, в гордом одиночестве, с головой окунуться в работу и выдать через пару месяцев очередной бестселлер. Но едва Сара успевает написать первые строки нового романа, как на виллу приезжает юная Жюли — дочь хозяина. Мало того, что девушка пристает к Саре со своей нескончаемой болтовней и целыми днями слушает музыку, так еще и приводит каждую ночь в свою спальню новых «постояльцев».

Посему отношения мисс Мортон, у которой английская чопорность помножена на иудейскую спесь, и открытой болтливой Жюли складываются очень непросто. Разъяренная писательница не раз высказывает претензии юному созданию, на что та отвечает предельно кротко, старательно избегая скандала. Но при этом Сара тайком наблюдает за молоденькой девушкой во время любовных утех, после одной из которых даже прибирает к рукам снятые ею трусики. И, естественно, зрители, знакомые с творчеством Озона, будут упоенно ожидать момента, когда стареющая дама совратит и завалит в постель юную девицу.

Ситуация предельно накаляется, когда очередная «одноразовая» связь Жюли оборачивается кровавой трагедией, кульминационным местом которой станет злосчастный бассейн, расположенный напротив особняка.


Рейтинг на IMDB: 6.8/10
Рейтинг МРАА: R
Рейтинг КиноПоиск.RU: 7.263

Видео: 720x576 (PAL 4:3), 25,000 fps, MPEG-2 Video ~ 8500 kbps avg
Аудио #1: Русский: 48 kHz, AC3 Dolby Digital, 6 ch, ~ 384 kbps avg [Профессиональный (многоголосый, закадровый)]
Аудио #2: Английский: 48 kHz, AC3 Dolby Digital, 6 ch, ~ 384 kbps avg [Оригинал]

Слоган: «На поверхности все спокойно.»

Доп.информация:
Meню озвученное, статичное, на русском языке, с навигацией по эпизодам. Все кнопки функциональны.


Общее
Полное имя: D:\DVD\Бассейн\VIDEO_TS\VTS_03_2.VOB
Формат: MPEG-PS
Размер файла: 1024 Мбайт
Продолжительность: 27 м.
Общий поток: 5261 Кбит/сек

Видео
Идентификатор: 224 (0xE0)
Формат: MPEG Video
Версия формата: Version 2
Профиль формата: Main@Main
Параметр BVOP формата: Да
Параметр матрицы формата: По умолчанию
Параметры GOP формата: M=3, N=12
Продолжительность: 27 м.
Вид битрейта: Переменный
Битрейт: 4388 Кбит/сек
Номинальный битрейт: 8500 Кбит/сек
Ширина: 720 пикс.
Высота: 576 пикс.
Соотношение сторон: 4:3
Частота кадров: 25,000 кадр/сек
Стандарт вещания: PAL
Цветовое пространство: YUV
Подвыборка цветности: 4:2:0
Битовая глубина: 8 бит
Тип развёртки: Чересстрочная
Порядок развёртки: Верхнее поле первое
Метод сжатия: С потерями
Бит/(Пиксели*Кадры): 0.423
Размер потока: 854 Мбайт (83%)

Аудио #1
Идентификатор: 128 (0x80)
Формат: AC-3
Формат/Информация: Audio Coding 3
Расширение режима: CM (complete main)
Продолжительность: 27 м.
Вид битрейта: Постоянный
Битрейт: 384 Кбит/сек
Канал(ы): 6 канала(ов)
Расположение каналов: Front: L C R, Side: L R, LFE
Частота: 48,0 КГц
Битовая глубина: 16 бит
Метод сжатия: С потерями
Задержка видео: -528 мс.
Размер потока: 74,7 Мбайт (7%)

Аудио #2
Идентификатор: 129 (0x81)
Формат: AC-3
Формат/Информация: Audio Coding 3
Расширение режима: CM (complete main)
Продолжительность: 27 м.
Вид битрейта: Постоянный
Битрейт: 384 Кбит/сек
Канал(ы): 6 канала(ов)
Расположение каналов: Front: L C R, Side: L R, LFE
Частота: 48,0 КГц
Битовая глубина: 16 бит
Метод сжатия: С потерями
Задержка видео: -528 мс.
Размер потока: 74,7 Мбайт (7%)

Текст
Идентификатор: 32 (0x20)
Формат: RLE
Формат/Информация: Run-length encoding





















Поделиться:




реклама партнёра


Вернуться к началу
 Профиль Отправить личное сообщение  
 
   Похожие торренты   Автор   Торрент   Размер 
В этой теме нет новых непрочитанных сообщений. Двуличный любовник / L'amant double (Франсуа Озон / François Ozon) [2017г., Франция, триллер, драма, мелодрама, HDRip] MVO

Alfredovich

0 | 0

1.44 ГБ

В этой теме нет новых непрочитанных сообщений. Новая подружка / Une nouvelle amie (Франсуа Озон) [Драма, 2014] HDRip, Dub [iTunes]

Dracon

1 | 0

1.46 ГБ

В этой теме нет новых непрочитанных сообщений. Новая подружка / Une nouvelle amie (Франсуа Озон) [Драма, 2014] BDRip 720p, Dub [iTunes]

Dracon

183 | 9

6.2 ГБ

В этой теме нет новых непрочитанных сообщений. Новая подружка / Une nouvelle amie (Франсуа Озон) [2014, драма, WEB-DLRip | Чистый звук] Dub

Nickolas3435

1822 | 91

1.46 ГБ

В этой теме нет новых непрочитанных сообщений. Новая подружка / Une nouvelle amie (Франсуа Озон / François Ozon) [2014г., Франция, драма, BDRip 1080p] DUB

Alfredovich

1 | 4

8.08 ГБ

В этой теме нет новых непрочитанных сообщений. Бассейн / La piscine [драма, мелодрама, криминал, 1969] BDRip 1080p, Dub

salma3

10 | 2

10.53 ГБ

В этой теме нет новых непрочитанных сообщений. Убийца / Sicario [Боевик, триллер, драма, криминал, детектив, 2015] DVD5, Dub [iTunes]

salma3

78 | 15

4.03 ГБ


Начать новую тему Ответить на тему  [ 1 сообщение ] 




Для Мосгорсуда, Роскомнадзора и рекламодателей:: mosgorsud-torrent[собачка]yandex.ru