Торрент файл
скачать торрент магнет ссылка Добавлен: 08 янв 2012, 22:43
Размер: 4.01 ГБ
Сидеров: 5
Личеров: 16
Автор

СообщениеДобавлено: 08 янв 2012, 22:43 

Не в сети
Супермодератор
Аватара пользователя
Дата регистрации:
11 апр 2010, 18:10
Спасибо: 5802 / 7
Сообщения: 56779
Чужие против ниндзя / Alien vs. Ninja


Перевод: Профессиональный (многоголосый, закадровый)
Cубтитры:Oтсутствуют
Формат: DVD5, DVD Video, MPEG2, AC3
Страна: Япония
Режиссер: Сейджи Чиба
Жанр: фантастика, фэнтези, боевик, комедия
Продолжительность: 01:21:04
Год выпуска: 2010

В ролях:Мика Хиджии, Бэн Хиура, Сууджи Кашивабара, Масанори Мимото, Юки Огоэ

Описание: Воины-ниндзя становятся свидетелями того, как огненный шар падает с неба недалеко от их деревни. Вскоре они находят пришельцев, которые нападают на них. Выжившие клянутся отомстить, но позже выясняется, что их оружие бесполезно…

Рейтинг на IMDB:5.3 / 10
Рейтинг на КиноПоиск.RU:5.94

Видео: 720x576, (PAL 16:9), 25,000 кадр/сек, MPEG 2 Video, ~8500 Кбит/сек
Аудио#1:Русский 48,0 КГц, Dolby AC3, 6 ch, ~448 Кбит/сек [Профессиональный (многоголосый закадровый)]

Доп. информация:
Дата выхода DVD: 17 февраля 2011, «Новый Диск»

Доп.информация: Лицензионное издание "Новый Диск"

Общее
Полное имя: C:\Documents and Settings\Admin.MICROSOF-68219C\Мои документы\Загрузки\Chuzhie_protiv_nindzja\VIDEO_TS\VTS_01_4.VOB
Формат: MPEG-PS
Размер файла: 1024 Мбайт
Продолжительность: 20 м.
Общий поток: 7087 Кбит/сек

Видео
Идентификатор: 224 (0xE0)
Формат: MPEG Video
Версия формата: Version 2
Профиль формата: Main@Main
Параметр BVOP формата: Да
Параметр матрицы формата: По умолчанию
Параметры GOP формата: M=3, N=15
Продолжительность: 20 м.
Вид битрейта: Переменный
Битрейт: 6498 Кбит/сек
Номинальный битрейт: 8500 Кбит/сек
Ширина: 720 пикс.
Высота: 576 пикс.
Соотношение сторон: 16:9
Частота кадров: 25,000 кадр/сек
Стандарт вещания: PAL
Цветовое пространство: YUV
Подвыборка цветности: 4:2:0
Битовая глубина: 8 бит
Тип развёртки: Чересстрочная
Порядок развёртки: Верхнее поле первое
Метод сжатия: С потерями
Бит/(Пиксели*Кадры): 0.627
Размер потока: 939 Мбайт (92%)

Аудио
Идентификатор: 189 (0xBD)-128 (0x80)
Формат: AC-3
Формат/Информация: Audio Coding 3
Расширение режима: CM (complete main)
Режим смешивания: DVD-Video
Продолжительность: 20 м.
Вид битрейта: Постоянный
Битрейт: 448 Кбит/сек
Канал(ы): 6 канала(ов)
Расположение каналов: Front: L C R, Side: L R, LFE
Частота: 48,0 КГц
Битовая глубина: 16 бит
Метод сжатия: С потерями
Задержка видео: -560 мс.
Размер потока: 64,7 Мбайт (6%)











Поделиться:




реклама партнёра


Вернуться к началу
 Профиль Отправить личное сообщение  
 
   Похожие торренты   Автор   Торрент   Размер 
В этой теме нет новых непрочитанных сообщений. Чужие против ниндзя / Alien vs. Ninja [ужасы, боевик, фантастика, комедия, 2010] DVDRip, Mvo

salma3

4 | 2

1.37 ГБ

В этой теме нет новых непрочитанных сообщений. Черепашки-ниндзя / Teenage Mutant Ninja Turtles[фантастика, фэнтези, боевик, комедия, приключения, 2014] BDRip, Dub [Лицензия]

Dracon

48 | 3

1.46 ГБ

В этой теме нет новых непрочитанных сообщений. Черепашки-ниндзя / Teenage Mutant Ninja Turtles [фантастика, фэнтези, боевик, комедия, приключения, 2014] WEB-DLRip, Dub [iTunes]

Dracon

123 | 4

1.46 ГБ

В этой теме нет новых непрочитанных сообщений. Черепашки-ниндзя / Teenage Mutant Ninja Turtles [фантастика, фэнтези, боевик, комедия, приключения, 2014] HD 720p, Dub [Тизер]

salma3

564 | 10

16.44 МБ

В этой теме нет новых непрочитанных сообщений. Черепашки-ниндзя / Teenage Mutant Ninja Turtles [фантастика, фэнтези, боевик, комедия, приключения, 2014] HDRip, Dub [iPad]

salma3

177 | 16

1.35 ГБ

В этой теме нет новых непрочитанных сообщений. Черепашки-ниндзя / Teenage Mutant Ninja Turtles [фантастика, фэнтези, боевик, комедия, приключения, 2014] BDRip-AVC, Dub+Sub [Лицензия]

Dracon

227 | 5

3 ГБ

В этой теме нет новых непрочитанных сообщений. Черепашки-ниндзя / Teenage Mutant Ninja Turtles [фантастика, фэнтези, боевик, комедия, приключения, 2014] WEB-DL 720p, Dub [iTunes]

Dracon

172 | 4

3.54 ГБ


Начать новую тему Ответить на тему  [ 1 сообщение ] 




Для Мосгорсуда, Роскомнадзора и рекламодателей:: mosgorsud-torrent[собачка]yandex.ru