Торрент файл
скачать торрент магнет ссылка Добавлен: 08 янв 2012, 22:43
Размер: 4.2 ГБ
Сидеров: 1
Личеров: 4
Автор

СообщениеДобавлено: 08 янв 2012, 22:43 

Не в сети
Супермодератор
Аватара пользователя
Дата регистрации:
11 апр 2010, 18:10
Спасибо: 5798 / 7
Сообщения: 56779
Самый гламурный фильм / Drop Dead Gorgeous


Перевод: Профессиональный (многоголосый, закадровый)
Cубтитры:Отсутсвуют
Формат: DVD5, DVD Video, MPEG2, AC3
Страна: США
Режиссер: Филип Элдертон
Жанр: комедия
Продолжительность: 01:32:35
Год выпуска: 2010

В ролях: Стивен Беркофф, Джереми Лондон, Джошуа Кокс, Николас Айронс, Наташа Алам, Вернон Уэллс, Керстен Берман, Айви Леван, Дэвид Аваллоне, Никки Флюкс

Описание: Смерть — не повод разорвать контракт. И когда Синтия, лицо новой рекламной компании, неожиданно умирает прямо на съемочной площадке, агенты принимают решение… не останавливать начатую работу!
С помощью стилистов и дорогой косметики, звезда гламура будет выглядеть «как живая». Поверьте, это станет самой незабываемой фотосессией, ведь им придется идти на невероятные ухищрения, чтобы скрыть смерть модели…


Рейтинг на IMDB:1.4/10
Рейтинг КиноПоиск.RU: 2.182
Рейтинг MPAA:R

Видео: 720x576, (PAL 16:9), 25,000 кадр/сек, MPEG 2 Video, ~8000 Кбит/сек
Аудио#1:Русский 48,0 КГц, Dolby AC3, 6ch, ~384 Кбит/сек [Профессиональный (многоголосый, закадровый)]
Аудио#2:Английский 48,0 КГц, Dolby AC3, 6ch, ~384 Кбит/сек [Оригинал]
Общее
Полное имя: C:\Documents and Settings\Admin.MICROSOF-68219C\Мои документы\Загрузки\Samy_glamurny_film\VIDEO_TS\VTS_02_4.VOB
Формат: MPEG-PS
Размер файла: 1024 Мбайт
Продолжительность: 21 м.
Общий поток: 6512 Кбит/сек

Видео
Идентификатор: 224 (0xE0)
Формат: MPEG Video
Версия формата: Version 2
Профиль формата: Main@Main
Параметр BVOP формата: Да
Параметр матрицы формата: По умолчанию
Параметры GOP формата: M=3, N=12
Продолжительность: 21 м.
Вид битрейта: Переменный
Битрейт: 5614 Кбит/сек
Номинальный битрейт: 8000 Кбит/сек
Ширина: 720 пикс.
Высота: 576 пикс.
Соотношение сторон: 16:9
Частота кадров: 25,000 кадр/сек
Стандарт вещания: PAL
Цветовое пространство: YUV
Подвыборка цветности: 4:2:0
Битовая глубина: 8 бит
Тип развёртки: Чересстрочная
Порядок развёртки: Верхнее поле первое
Метод сжатия: С потерями
Бит/(Пиксели*Кадры): 0.541
Размер потока: 882 Мбайт (86%)

Аудио #1
Идентификатор: 189 (0xBD)-128 (0x80)
Формат: AC-3
Формат/Информация: Audio Coding 3
Расширение режима: CM (complete main)
Режим смешивания: DVD-Video
Продолжительность: 21 м.
Вид битрейта: Постоянный
Битрейт: 384 Кбит/сек
Канал(ы): 6 канала(ов)
Расположение каналов: Front: L C R, Side: L R, LFE
Частота: 48,0 КГц
Битовая глубина: 16 бит
Метод сжатия: С потерями
Задержка видео: -544 мс.
Размер потока: 60,4 Мбайт (6%)

Аудио #2
Идентификатор: 189 (0xBD)-130 (0x82)
Формат: AC-3
Формат/Информация: Audio Coding 3
Расширение режима: CM (complete main)
Режим смешивания: DVD-Video
Продолжительность: 21 м.
Вид битрейта: Постоянный
Битрейт:384 Кбит/сек
Канал(ы): 6 канала(ов)
Расположение каналов: Front: L R
Частота: 48,0 КГц
Битовая глубина: 16 бит
Метод сжатия: С потерями
Задержка видео: -512 мс.
Размер потока: 30,2 Мбайт (3%)











Поделиться:




реклама партнёра


Вернуться к началу
 Профиль Отправить личное сообщение  
 
   Похожие торренты   Автор   Торрент   Размер 
В этой теме нет новых непрочитанных сообщений. Beyond All Recognition - Drop = Dead [2012, Metalcore, Dubstep Post-Hardcore, MP3]

PriZraK

0 | 1

102.34 МБ

В этой теме нет новых непрочитанных сообщений. Amaranthe - Drop Dead Cynical (Single) [01.09.2014, Modern Metal, MP3]

PriZraK

5 | 2

7.57 МБ

В этой теме нет новых непрочитанных сообщений. Смертельное падение / Dead Drop [боевик, триллер, драма, 2013] HDRip, Mvo

salma3

1505 | 71

1.37 ГБ

В этой теме нет новых непрочитанных сообщений. Возвращение живых мертвецов 2 / Return of the Living Dead Part II [ужасы, фантастика, комедия, 1988] WEB-DLRip, Mvo [Премьер Видео Фильм]

salma3

3 | 4

1.46 ГБ

В этой теме нет новых непрочитанных сообщений. Розы мертвы / Roses Are Dead / Acting on Impulse [Детектив, триллер, комедия, 1993] DVD5, Mvo

salma3

9 | 2

3.71 ГБ

В этой теме нет новых непрочитанных сообщений. Симпатичная мамка / 35 year old gorgeous Latina MILF (Cynthia) (2013) SiteRip

friizze

277 | 191

1.49 ГБ

В этой теме нет новых непрочитанных сообщений. Тупик / Dead End [ужасы, триллер, 2003] DVD5, Mvo+Sub

salma3

26 | 2

4.21 ГБ


Начать новую тему Ответить на тему  [ 1 сообщение ] 




Для Мосгорсуда, Роскомнадзора и рекламодателей:: mosgorsud-torrent[собачка]yandex.ru